<?xml version="1.0" standalone="no"?>
<!DOCTYPE svg PUBLIC "-//W3C//DTD SVG 1.1//EN" "http://www.w3.org/Graphics/SVG/1.1/DTD/svg11.dtd" >
<svg xmlns="http://www.w3.org/2000/svg" xmlns:xlink="http://www.w3.org/1999/xlink" version="1.1">
<metadata>
Created by FontForge 20160405 at Mon Apr 10 05:30:39 2017
 By www-data
Copyright (c) 1989, 1992, 1996, 1998, 1999 Adobe Systems Incorporated.  All Rights Reserved.Adobe Garamond is a registered trademark of Adobe Systems Incorporated.
</metadata>
<defs>
<font id="AGaramondLT-Regular" horiz-adv-x="500" >
  <font-face 
    font-family="AGaramond LT"
    font-weight="400"
    font-stretch="normal"
    units-per-em="1000"
    panose-1="2 0 5 3 6 0 0 2 0 3"
    ascent="800"
    descent="-200"
    x-height="397"
    cap-height="663"
    bbox="-183 -269 1099 851"
    underline-thickness="50"
    underline-position="-175"
    unicode-range="U+0020-2122"
  />
<missing-glyph 
d="M442 8v496h-384v-496h384zM50 512h400v-512h-400v512z" />
    <glyph glyph-name=".notdef" 
d="M442 8v496h-384v-496h384zM50 512h400v-512h-400v512z" />
    <glyph glyph-name=".null" horiz-adv-x="0" 
 />
    <glyph glyph-name="nonmarkingreturn" horiz-adv-x="250" 
 />
    <glyph glyph-name="space" unicode=" " horiz-adv-x="250" 
 />
    <glyph glyph-name="exclam" unicode="!" horiz-adv-x="220" 
d="M110 646q24 0 36.5 -5t12.5 -24q0 -11 -1.5 -30t-5.5 -59l-29 -323q-5 -5 -14 -5q-8 0 -12 5l-29 323q-4 40 -5.5 59t-1.5 30q0 19 12.5 24t36.5 5zM110 -14q-22 0 -39 14.5t-17 40.5t16 42.5t40 16.5q26 0 41 -17.5t15 -41.5t-15 -39.5t-41 -15.5z" />
    <glyph glyph-name="quotedbl" unicode="&#x22;" horiz-adv-x="404" 
d="M282 700q21 0 32 -3.5t11 -20.5q0 -5 -1.5 -14t-3.5 -25l-26 -161q-12 -12 -24 0l-26 161q-2 16 -3.5 25t-1.5 14q0 17 11 20.5t32 3.5zM122 700q21 0 32 -3.5t11 -20.5q0 -5 -1.5 -14t-3.5 -25l-26 -161q-12 -12 -24 0l-26 161q-2 16 -3.5 25t-1.5 14q0 17 11 20.5
t32 3.5z" />
    <glyph glyph-name="numbersign" unicode="#" 
d="M376 403l-44 -162h99l-15 -50h-98l-51 -188h-39l50 188h-119l-51 -188h-38l50 188h-111l15 50h109l43 162h-112l16 50h109l45 171h43l-46 -171h116l45 171h44l-46 -171h101l-13 -50h-102zM217 403l-44 -162h118l43 162h-117z" />
    <glyph glyph-name="dollar" unicode="$" 
d="M315 639q23 -1 48 -5t52 -10q3 -8 6.5 -21.5t6.5 -29.5t5.5 -32t2.5 -30q-2 -5 -9.5 -6.5t-12.5 3.5q-5 11 -11.5 26t-18 29.5t-29 26.5t-43.5 18l-30 -242l42 -22q52 -27 86 -68t34 -103q0 -38 -14.5 -69.5t-41 -54.5t-65 -36t-86.5 -13l-11 -94q-6 -5 -17 -5t-16 5
l12 96q-51 3 -81 14t-41 18q-12 14 -20 50.5t-8 80.5q3 5 10 6.5t12 -3.5q5 -16 14 -36.5t24.5 -40t38 -35t54.5 -22.5l33 267l-38 19q-21 11 -41.5 27t-36 36.5t-25 44.5t-9.5 52q0 33 12.5 61.5t37 50t60 34.5t81.5 14l9 77q4 5 16 5q13 0 18 -5zM241 31q25 0 48.5 5.5
t41.5 18t29 33.5t11 51q0 17 -3 35t-13 37t-30 37.5t-53 36.5zM278 611q-38 0 -61.5 -11t-36.5 -27t-17.5 -35t-4.5 -35q0 -41 27.5 -70t65.5 -50z" />
    <glyph glyph-name="percent" unicode="%" horiz-adv-x="844" 
d="M229 -40q-12 0 -21 6t-9 16l404 670q8 1 17 -3.5t16 -13.5zM279 446q0 19 -2.5 47.5t-10.5 55t-24 45t-43 18.5t-43 -18.5t-24.5 -44.5t-11.5 -54.5t-3 -48.5t3 -48.5t11.5 -54.5t24.5 -44.5t43 -18.5t43 18.5t24 45t10.5 54.5t2.5 48zM351 446q0 -30 -8.5 -64t-27.5 -63
t-48 -48t-69 -19q-41 0 -69.5 19t-47.5 48t-27.5 63t-8.5 64t8.5 64t27.5 63t47.5 48t69.5 19q40 0 69 -19t48 -48t27.5 -63t8.5 -64zM727 180q0 19 -2.5 47.5t-10.5 55t-24 45t-43 18.5t-43 -18.5t-24.5 -44.5t-11.5 -54.5t-3 -48.5t3 -48.5t11.5 -54.5t24.5 -44.5
t43 -18.5t43 18.5t24 45t10.5 54.5t2.5 48zM799 180q0 -30 -8.5 -64t-27.5 -63t-48 -48t-69 -19q-41 0 -69.5 19t-47.5 48t-27.5 63t-8.5 64t8.5 64t27.5 63t47.5 48t69.5 19q40 0 69 -19t48 -48t27.5 -63t8.5 -64z" />
    <glyph glyph-name="ampersand" unicode="&#x26;" horiz-adv-x="818" 
d="M284 611q-33 0 -52.5 -25.5t-19.5 -56.5q0 -62 82 -109q26 17 43 42.5t17 61.5q0 33 -17 60t-53 27zM251 363q-19 -9 -39 -25t-36.5 -37.5t-27 -48t-10.5 -56.5q0 -33 11 -61t30.5 -48t47 -31t60.5 -11q51 0 94.5 26t77.5 66q-18 31 -41.5 63t-50.5 61.5t-56.5 55.5
t-59.5 46zM657 478q57 0 89 1t52 3q5 -4 5.5 -11.5t-3.5 -12.5l-44 -7q-21 -3 -37 -13.5t-29.5 -25.5t-25 -33t-23.5 -37q-25 -40 -54.5 -81.5t-61.5 -85.5q13 -20 19 -29.5t14 -20.5q20 -30 39.5 -48t37.5 -27.5t35.5 -12t32.5 -2.5q23 0 48 9t42 27q6 -1 9.5 -6t1.5 -12
q-30 -38 -71 -52.5t-88 -14.5q-34 0 -63.5 8t-43.5 21q-6 5 -14.5 17t-17.5 26.5t-17 28t-12 20.5q-21 -24 -45.5 -46t-51.5 -38.5t-57.5 -26.5t-63.5 -10q-53 0 -90 17t-60.5 43.5t-34.5 58t-11 61.5q0 39 13 70.5t35 57.5t51.5 48t62.5 42q-14 9 -27.5 21t-24.5 27
t-18 33.5t-7 39.5q0 30 11.5 54.5t31 42.5t45 28t52.5 10q57 0 93 -33.5t36 -85.5q0 -25 -9 -43t-23 -31.5t-32.5 -24.5t-36.5 -21q42 -26 91 -74t100 -122q9 12 22 32.5t28 45t29 50t25 47.5q13 26 17.5 38t4.5 17q0 12 -26 15l-34 4q-5 5 -4.5 12.5t6.5 11.5h82z" />
    <glyph glyph-name="quotesingle" unicode="'" horiz-adv-x="235" 
d="M118 700q21 0 32 -3.5t11 -20.5q0 -5 -1.5 -14t-3.5 -25l-26 -161q-12 -12 -24 0l-26 161q-2 16 -3.5 25t-1.5 14q0 17 11 20.5t32 3.5z" />
    <glyph glyph-name="parenleft" unicode="(" horiz-adv-x="320" 
d="M146 270q0 -136 39.5 -238t114.5 -180q0 -14 -14 -15q-46 30 -84 75.5t-65 101.5t-42 121t-15 135t15 135t42 121t65 101.5t84 75.5q14 -1 14 -15q-75 -78 -114.5 -180t-39.5 -238z" />
    <glyph glyph-name="parenright" unicode=")" horiz-adv-x="320" 
d="M174 270q0 136 -39.5 238t-114.5 180q0 14 14 15q46 -30 84 -75.5t65 -101.5t42 -121t15 -135t-15 -135t-42 -121t-65 -101.5t-84 -75.5q-14 1 -14 15q75 78 114.5 180t39.5 238z" />
    <glyph glyph-name="asterisk" unicode="*" horiz-adv-x="394" 
d="M220 546l125 63q7 -1 10.5 -7.5t1.5 -13.5l-115 -80l114 -79q2 -7 -1 -14t-11 -8l-124 65l-10 -130q-5 -4 -12 -4t-12 4l-11 130l-124 -65q-7 1 -10.5 8t-1.5 14l114 79l-115 80q-2 7 1.5 13.5t10.5 7.5l125 -63l11 130q5 4 12 4t12 -4z" />
    <glyph glyph-name="plus" unicode="+" 
d="M221 0v181h-163v49h163v164h59v-164h163v-49h-163v-181h-59z" />
    <glyph glyph-name="comma" unicode="," horiz-adv-x="250" 
d="M113 122q13 0 27 -6t25.5 -18t19 -30.5t7.5 -43.5q0 -30 -10.5 -53t-28.5 -41t-41.5 -30.5t-49.5 -20.5q-7 2 -9 11t3 13q12 4 26 10.5t26.5 17t21 25t8.5 34.5q0 16 -7.5 26t-17.5 16.5t-19.5 10t-12.5 5.5q-10 5 -13.5 12.5t-3.5 16.5q0 17 12.5 31t36.5 14z" />
    <glyph glyph-name="hyphenminus" unicode="-" horiz-adv-x="320" 
d="M273 247q15 -10 15 -32q0 -15 -8 -25l-233 -22q-8 7 -11.5 15.5t-3.5 16.5q0 15 8 25z" />
    <glyph glyph-name="period" unicode="." horiz-adv-x="250" 
d="M125 -14q-22 0 -39 14.5t-17 40.5t16 42.5t40 16.5q26 0 41 -17.5t15 -41.5t-15 -39.5t-41 -15.5z" />
    <glyph glyph-name="slash" unicode="/" horiz-adv-x="327" 
d="M88 -16h-58l209 702h58z" />
    <glyph glyph-name="zero" unicode="0" 
d="M250 610q-28 0 -47 -15.5t-32.5 -40.5t-21 -57t-11.5 -65t-5 -64.5t-1 -54.5t1 -54.5t5 -64.5t11.5 -65t21 -57t32.5 -40.5t47 -15.5q27 0 46.5 15.5t33 40.5t21 57t11.5 65t5 64t1 55q0 23 -1 54.5t-5 64.5t-11.5 65t-21 57t-33 40.5t-46.5 15.5zM250 640q55 0 94 -30
t64 -77t37 -105t12 -115q0 -59 -12 -117.5t-37 -105t-64 -75.5t-94 -29t-94 29t-64 75.5t-37 105t-12 117.5q0 57 12 115t37 105t64 77t94 30z" />
    <glyph glyph-name="one" unicode="1" 
d="M220 462q0 25 -1 42.5t-6 28.5t-14.5 16t-26.5 7l-48 4q-6 3 -6.5 11t5.5 11q63 11 104 28t61 30q7 0 10 -5q-2 -14 -3 -48t-1 -77v-388q0 -29 1 -47.5t5 -29t13 -15t24 -5.5l42 -3q5 -5 4 -14t-6 -11q-29 2 -61 2.5t-58 0.5q-27 0 -59 -0.5t-61 -2.5q-5 2 -6 11t4 14
l41 3q16 1 24.5 5.5t12.5 15t5 29t1 47.5v340z" />
    <glyph glyph-name="two" unicode="2" 
d="M316 62q69 0 94 22q14 13 20.5 23t11.5 18q5 2 12 0.5t10 -6.5q-10 -38 -22.5 -72.5t-23.5 -49.5q-15 1 -30.5 1.5t-32.5 0.5q-16 1 -33 1h-33h-145q-42 0 -68 -0.5t-43 -2.5q-2 1 -4.5 4t-2.5 9q0 4 11 11q17 11 33 24t33 29.5t38 38.5t49 52q25 27 50.5 58t46 66
t33.5 73t13 78q0 69 -32 107.5t-93 38.5q-45 0 -77.5 -27.5t-52.5 -72.5q-7 -4 -15.5 -0.5t-8.5 13.5q24 66 78.5 103.5t122.5 37.5q37 0 67.5 -12t52.5 -33.5t33.5 -51.5t11.5 -66q0 -47 -24 -99.5t-83 -120.5l-61 -70q-30 -36 -48 -57.5t-27.5 -34t-12.5 -17.5t-3 -7
q0 -5 5.5 -7t25.5 -2h124z" />
    <glyph glyph-name="three" unicode="3" 
d="M140 -56q-17 0 -34.5 3t-32 10.5t-23.5 19t-9 29.5q0 15 10.5 27t28.5 12t29 -12t19 -24q10 -14 21 -22t32 -8q24 0 55 15t58.5 41.5t46.5 62t19 77.5q0 33 -8 62.5t-24 52t-40 35.5t-57 13q-37 0 -64 -15t-44 -34q-12 2 -19.5 11.5t-2.5 23.5q14 6 35.5 16t44 21.5
t44 24.5t36.5 25q17 14 35 37t18 59q0 40 -24 63t-58 23q-45 0 -78.5 -25t-56.5 -63q-8 -2 -14.5 2t-6.5 12q12 26 30.5 48.5t42.5 38.5t51.5 25t56.5 9q62 0 100.5 -30.5t38.5 -84.5q0 -15 -4 -30.5t-15.5 -31t-32.5 -32t-55 -34.5q-7 -13 12 -15q28 -2 54.5 -13
t46.5 -30.5t32 -47t12 -63.5q0 -54 -25 -105.5t-72 -92.5q-28 -24 -57 -40.5t-57 -26.5t-52.5 -14.5t-42.5 -4.5z" />
    <glyph glyph-name="four" unicode="4" 
d="M34 189q-14 0 -14 17q0 9 3.5 16t14.5 22l321 448q5 7 10 10.5t13 3.5h17q15 0 15 -8q0 -4 -5 -11l-318 -440q-9 -12 -0.5 -14t28.5 -2h155q18 0 23 4.5t5 21.5v184q0 5 1.5 10.5t7.5 9.5q9 6 24 11t27 6q11 1 12.5 -7.5t1.5 -23.5v-193q0 -14 3.5 -18.5t16.5 -4.5h64
q7 -5 7 -20t-7 -22h-54q-19 0 -24.5 -3t-5.5 -19v-45q0 -30 1 -48t5 -28.5t13 -14.5t24 -6l26 -3q5 -5 4 -14t-6 -11q-27 2 -54 2.5t-50 0.5q-27 0 -59.5 -0.5t-65.5 -2.5q-5 2 -6 11t4 14l45 3q16 1 25 5.5t13.5 15t5.5 29t1 47.5v42q0 18 -4.5 21.5t-24.5 3.5h-239z" />
    <glyph glyph-name="five" unicode="5" 
d="M131 593q4 12 9 18.5t17 8.5l241 34q5 1 7 -2.5t2 -6.5q-5 -17 -15 -34t-21 -28l-189 -27q-17 -2 -23 -7.5t-11 -19.5l-18 -60q-3 -9 0 -12.5t14 -5.5l21 -2q47 -5 94 -18t85 -39t62 -65.5t24 -96.5q0 -65 -33.5 -119t-86 -93t-115.5 -61.5t-123 -24.5q-8 3 -9 14.5
t6 16.5q58 3 110 22t91.5 50.5t62.5 74.5t23 94q0 53 -25.5 87.5t-65 55t-87 28.5t-91.5 9q-11 0 -12.5 7t3.5 24z" />
    <glyph glyph-name="six" unicode="6" 
d="M40 236q0 32 6 70t21 79t41 83t66 81q39 38 80 64t79.5 42.5t71.5 24.5t56 11q5 -2 6.5 -9.5t-2.5 -11.5q-24 -8 -51.5 -18.5t-56.5 -25t-58 -35t-56 -49.5q-64 -68 -89 -146.5t-25 -156.5q0 -44 8 -84t24.5 -71t43 -49.5t63.5 -18.5q28 0 49 12t35.5 32.5t21.5 48.5
t7 60t-7.5 62t-22.5 53.5t-38 37.5t-55 14q-15 0 -26.5 -3t-19.5 -5q-10 5 -3 16q22 14 45.5 22t52.5 8q36 0 65.5 -13.5t50 -37.5t32 -57t11.5 -71q0 -44 -15.5 -82t-43 -66.5t-66.5 -44.5t-86 -16q-55 0 -95.5 20t-67 54t-39.5 79.5t-13 96.5z" />
    <glyph glyph-name="seven" unicode="7" 
d="M157 564q-21 0 -36.5 -1t-27.5 -6.5t-22 -15.5t-21 -28q-5 -2 -11.5 -0.5t-9.5 8.5q8 20 17.5 49.5t16.5 58.5q6 -1 15.5 -1.5t22.5 -0.5q14 -1 31 -1h37h169h42q22 0 41 0.5t32.5 1t18.5 1.5q7 -2 7 -9q-21 -32 -43.5 -73t-50.5 -98l-255 -513q-12 -2 -22 3.5t-12 15.5
l283 572q11 23 6.5 30t-28.5 7h-200z" />
    <glyph glyph-name="eight" unicode="8" 
d="M256 610q-26 0 -45.5 -9t-33 -24.5t-20 -35.5t-6.5 -42q0 -26 11.5 -47t30.5 -38.5t42 -31t47 -25.5q35 22 57.5 55.5t22.5 79.5q0 23 -7.5 44t-21.5 37.5t-33.5 26.5t-43.5 10zM253 16q54 0 85 33t31 88q0 30 -13 55t-34 46t-47.5 37.5t-53.5 28.5q-26 -13 -43 -31
t-28 -38.5t-15.5 -41.5t-4.5 -41q0 -28 9 -52.5t25 -43t38.5 -29.5t50.5 -11zM263 640q33 0 63.5 -9.5t53 -27.5t36 -45.5t13.5 -63.5q0 -31 -11.5 -54.5t-29 -41.5t-38 -31.5t-39.5 -24.5q26 -15 50 -32.5t42 -40t29 -51t11 -64.5q0 -39 -14.5 -70t-41 -53t-62.5 -33.5
t-78 -11.5q-35 0 -69 9t-60.5 28.5t-43 50t-16.5 74.5q0 32 12 58.5t31 48t43 38t49 28.5q-22 12 -42.5 27t-36 34.5t-25.5 43t-10 52.5q0 38 14 68t39 51t59 32t72 11z" />
    <glyph glyph-name="nine" unicode="9" 
d="M239 610q-48 0 -80 -35.5t-32 -102.5q0 -29 7.5 -59t21.5 -54t35.5 -39.5t50.5 -15.5q19 0 27 1t17 3q7 -4 3 -12q-15 -13 -38 -21t-52 -8q-30 0 -57.5 12t-48.5 33.5t-33.5 53t-12.5 70.5q0 45 16 82.5t43.5 64.5t65 42t80.5 15q47 0 84 -19t62.5 -53t39 -81t13.5 -102
q0 -41 -8.5 -85t-26.5 -87t-46 -83.5t-66 -74.5q-28 -25 -59 -44.5t-62.5 -33.5t-61.5 -23.5t-55 -13.5q-6 2 -8 10.5t2 12.5q89 27 148 70q34 25 62.5 58t49 76.5t31.5 99t11 126.5q0 34 -5.5 72t-19.5 70.5t-38 53.5t-60 21z" />
    <glyph glyph-name="colon" unicode=":" horiz-adv-x="250" 
d="M125 -14q-22 0 -39 14.5t-17 40.5t16 42.5t40 16.5q26 0 41 -17.5t15 -41.5t-15 -39.5t-41 -15.5zM125 280q-22 0 -39 14.5t-17 40.5t16 42.5t40 16.5q26 0 41 -17.5t15 -41.5t-15 -39.5t-41 -15.5z" />
    <glyph glyph-name="semicolon" unicode=";" horiz-adv-x="250" 
d="M125 280q-22 0 -39 14.5t-17 40.5t16 42.5t40 16.5q26 0 41 -17.5t15 -41.5t-15 -39.5t-41 -15.5zM113 122q13 0 27 -6t25.5 -18t19 -30.5t7.5 -43.5q0 -30 -10.5 -53t-28.5 -41t-41.5 -30.5t-49.5 -20.5q-7 2 -9 11t3 13q12 4 26 10.5t26.5 17t21 25t8.5 34.5
q0 16 -7.5 26t-17.5 16.5t-19.5 10t-12.5 5.5q-10 5 -13.5 12.5t-3.5 16.5q0 17 12.5 31t36.5 14z" />
    <glyph glyph-name="less" unicode="&#x3c;" 
d="M445 413v-58l-317 -148v-2l317 -149v-57l-389 184v45z" />
    <glyph glyph-name="equal" unicode="=" 
d="M443 106h-385v49h385v-49zM443 256h-385v49h385v-49z" />
    <glyph glyph-name="greater" unicode="&#x3e;" 
d="M444 228v-45l-389 -184v57l317 149v2l-317 148v58z" />
    <glyph glyph-name="question" unicode="?" horiz-adv-x="321" 
d="M126 -14q-22 0 -39 14.5t-17 40.5t16 42.5t40 16.5q26 0 41 -17.5t15 -41.5t-15 -39.5t-41 -15.5zM104 646q30 0 60.5 -17t55.5 -45.5t40.5 -65t15.5 -76.5q0 -42 -13.5 -63t-24.5 -27l-79 -42q-35 -18 -35 -44q0 -12 3 -27.5t7 -30.5q-3 -6 -9.5 -7.5t-11.5 2.5
q-5 9 -11.5 21t-12 25.5t-9 27.5t-3.5 25q0 31 15.5 45.5t38.5 26.5l49 26q30 16 42.5 34.5t12.5 38.5q0 16 -5 32t-17 29q-21 20 -49 26t-67 6q-7 0 -20 11t-13 31q0 15 10 26.5t30 11.5z" />
    <glyph glyph-name="at" unicode="@" horiz-adv-x="765" 
d="M543 529q12 5 26.5 0.5t21.5 -12.5q-3 -7 -12 -27.5t-20.5 -48t-25 -58t-25 -59t-21 -51t-13.5 -33.5q-7 -17 -2 -25t25 -7q40 1 75.5 15.5t62 40.5t42 63.5t15.5 84.5q0 53 -20 95.5t-55.5 72.5t-83 46t-102.5 16q-74 0 -133 -28.5t-100 -76.5t-62.5 -111t-21.5 -132
q0 -44 14.5 -92.5t49 -89t91.5 -67t143 -26.5q54 0 92 12t63 23q5 -2 7.5 -7.5t0.5 -11.5q-45 -29 -98 -40t-95 -11q-62 0 -122.5 18.5t-108 57t-77 96.5t-29.5 137q0 88 32.5 159t87.5 120.5t126.5 76.5t148.5 27q72 0 127 -22t92.5 -58t56.5 -83t19 -97q0 -48 -17.5 -91.5
t-51 -77t-81.5 -53t-109 -19.5q-25 0 -39 2.5t-21.5 6t-9.5 7t-2 6.5q0 4 1.5 10.5t6.5 20.5l25 63l-2 1q-23 -23 -49.5 -44.5t-52.5 -37.5t-49 -25.5t-38 -9.5q-21 0 -31 14t-10 31q0 7 3.5 21.5t12.5 35t23.5 45.5t36.5 52q18 22 40 44.5t47.5 40.5t54 29.5t58.5 11.5
q10 0 21.5 -5.5t15.5 -16.5zM452 465q-16 0 -29.5 -7.5t-33.5 -22.5q-21 -17 -40 -43t-33.5 -54.5t-23 -56t-8.5 -47.5q0 -13 12 -13q5 0 24.5 10t55.5 42q18 16 37.5 39t36 47t28.5 44.5t17 32.5q-4 11 -15 20t-28 9z" />
    <glyph glyph-name="A" unicode="A" horiz-adv-x="623" 
d="M209 321q-6 -17 -3 -20.5t24 -3.5h123q22 0 25.5 5.5t-3.5 25.5l-54 163l-12 36t-11 27h-2q-2 -4 -9 -20t-15 -39zM407 232q-5 17 -11.5 21t-29.5 4h-151q-19 0 -26 -4t-12 -20l-35 -105q-22 -66 -22 -83q0 -9 5.5 -13.5t23.5 -6.5l33 -3q5 -4 5 -13t-7 -12q-20 2 -45 2
q-24 0 -59 1q-25 0 -50.5 -1t-45.5 -2q-5 3 -6 12t4 13l33 3q18 2 33.5 12t26.5 37q13 34 34.5 86.5t53.5 136.5l102 270q11 27 15 43t2 28q18 5 31 16.5t21 21.5q5 0 9 -2t6 -7q10 -33 21.5 -67t22.5 -67l137 -402q11 -32 19.5 -52t17.5 -31.5t20.5 -16t27.5 -6.5l27 -3
q5 -4 4.5 -13t-4.5 -12q-31 2 -59 2.5t-62 0.5q-36 0 -64.5 -1t-50.5 -2q-6 3 -6.5 12t4.5 13l29 3q16 2 25.5 6t9.5 12t-3.5 21.5t-9.5 31.5z" />
    <glyph glyph-name="B" unicode="B" horiz-adv-x="605" 
d="M210 397q0 -11 1 -16.5t6 -8.5t15.5 -3.5t29.5 0.5q38 1 67.5 8t49.5 22t30 39t10 59q0 37 -12.5 62.5t-33.5 41.5t-48 23.5t-55 7.5q-33 0 -46 -6q-8 -2 -11 -7t-3 -19v-203zM210 165q0 -14 0.5 -29.5t3 -30.5t6.5 -28t11 -21q14 -17 35 -22.5t44 -5.5q33 0 62 8
t50 24.5t33 43t12 64.5q0 30 -8.5 60t-31 55t-61 40.5t-98.5 15.5q-20 0 -31.5 -1.5t-17.5 -4.5t-7.5 -8t-1.5 -12v-148zM128 530q0 28 -1.5 46t-6.5 28.5t-14.5 15.5t-26.5 7l-32 3q-6 5 -5.5 13.5t6.5 11.5q41 4 93 6t122 2q48 0 91 -5.5t77 -22.5q32 -16 54 -46.5
t22 -78.5q0 -54 -28.5 -85t-73.5 -52q0 -8 5.5 -10.5t13.5 -4.5q20 -4 43.5 -15.5t43.5 -31.5t33.5 -50t13.5 -70q0 -87 -65.5 -140.5t-200.5 -53.5q-22 0 -55 1.5t-65 1.5q-33 0 -60 -1t-55 -2q-5 2 -6 11t4 14l18 3q20 3 31 8t16.5 18t6.5 36.5t1 62.5v380z" />
    <glyph glyph-name="C" unicode="C" horiz-adv-x="696" 
d="M44 326q0 84 34.5 152t91.5 113q55 43 123.5 64t146.5 21q20 0 43.5 -2t47.5 -5t46 -7.5t40 -9.5q9 -2 15 -3.5t13 -0.5q0 -9 1.5 -24.5t3 -35t4 -42t5.5 -45.5q-4 -5 -13 -6t-14 4q-6 25 -18 51t-35.5 47t-60.5 34.5t-91 13.5q-57 0 -108.5 -18.5t-90.5 -56t-61.5 -94.5
t-22.5 -135q0 -79 23.5 -139.5t63.5 -102t94 -63t116 -21.5q48 0 83.5 14t60.5 35.5t40.5 46.5t24.5 47q5 4 14 2.5t12 -6.5q-3 -20 -8.5 -41t-12.5 -40t-14 -34t-13 -22q-9 -2 -18 -4.5t-17 -5.5t-25 -7t-38.5 -7.5t-46 -6t-48.5 -2.5q-68 0 -131 15t-118 52
q-60 41 -101 109.5t-41 165.5z" />
    <glyph glyph-name="D" unicode="D" horiz-adv-x="780" 
d="M210 173q0 -40 3.5 -65.5t16.5 -43.5q17 -23 46 -32t77 -9q73 0 126 22.5t87.5 64t51 99t16.5 127.5q0 27 -5 60t-18.5 66t-36 63.5t-57.5 54t-84 38t-114 14.5q-45 0 -69 -4.5t-30 -9.5q-10 -8 -10 -76v-369zM128 530q0 26 -1.5 43.5t-6.5 29t-14 17t-25 7.5l-22 3
q-6 4 -6.5 13t7.5 12q64 4 125.5 6t125.5 2q63 0 117 -6t103 -24q51 -18 89 -48t63.5 -68.5t38 -84t12.5 -94.5q0 -96 -44.5 -173.5t-130.5 -124.5q-49 -26 -107.5 -37t-116.5 -11q-24 0 -47.5 1t-44.5 3q-22 2 -39.5 3t-31.5 1q-32 0 -61 -0.5t-64 -2.5q-5 2 -6 11t4 14
l23 3q22 3 34 8t18 18t7 36.5t1 62.5v380z" />
    <glyph glyph-name="E" unicode="E" horiz-adv-x="584" 
d="M128 510q0 39 -1 62.5t-7 37t-18.5 18.5t-34.5 8l-16 2q-5 3 -4 13t6 12q17 -1 31.5 -1.5t28.5 -0.5q14 -1 28 -1h30h188q48 0 87 0.5t48 2.5q2 -6 4.5 -21.5t4.5 -35t3.5 -40t3.5 -36.5q-3 -5 -12 -6t-13 4l-11 33t-13 27t-20.5 21t-31.5 14q-16 4 -40 5t-57 1h-72
q-11 0 -17 -1t-9 -5t-3.5 -12t-0.5 -22v-200q0 -11 1 -16.5t4.5 -8t10 -3t17.5 -0.5h58q32 0 54 1.5t31 4.5t14.5 9.5t9.5 25.5l8 41q4 5 13.5 4.5t12.5 -5.5q0 -18 -2 -45t-2 -56q0 -27 2 -53t2 -43q-3 -5 -12.5 -5.5t-13.5 4.5l-9 39q-3 14 -9.5 24t-21.5 14
q-11 3 -29.5 4t-47.5 1h-58q-23 0 -28 -3.5t-5 -23.5v-141q0 -40 3.5 -65.5t15.5 -38.5q4 -5 11.5 -9t20.5 -7t34.5 -5t54.5 -2q29 0 49.5 1t35 2.5t25 4.5t18.5 7q14 8 32.5 33t38.5 64q5 4 13.5 2t11.5 -9q-3 -13 -8.5 -32.5t-12 -40t-13 -38.5t-11.5 -28q-34 1 -67.5 1.5
t-66.5 0.5q-34 1 -67 1h-67h-90q-32 0 -62 -1t-74 -2q-5 2 -6 11t4 14l33 3q21 2 33.5 7t19 18t8 37t1.5 63v360z" />
    <glyph glyph-name="F" unicode="F" horiz-adv-x="538" 
d="M210 378q0 -10 1 -15.5t4.5 -8t10 -3t17.5 -0.5h68q31 0 53.5 1.5t31.5 4.5q8 3 14 9t11 26l9 40q4 5 13 5q10 0 13 -5q0 -18 -2 -45.5t-2 -55.5q0 -27 2 -53.5t2 -43.5q-3 -5 -12 -5t-14 5l-10 39q-3 14 -10.5 23.5t-21.5 14.5q-11 3 -29.5 4t-47.5 1h-68
q-23 0 -28 -3.5t-5 -23.5v-139q0 -39 1 -63t7 -37t18.5 -18t34.5 -7l34 -3q5 -3 4 -13t-6 -12q-44 1 -73.5 2t-59.5 1q-33 0 -61.5 -0.5t-63.5 -2.5q-5 2 -6 11t4 14l25 3q22 3 34 8t18 18t7 36.5t1 62.5v360q0 39 -1 63t-7 37t-18 18t-34 8l-16 2q-5 3 -4 13t6 12
q16 -1 30.5 -1.5t28.5 -0.5q14 -1 28 -1h29h184q48 0 86.5 0.5t48.5 2.5q0 -35 0.5 -69t2.5 -63q-2 -5 -10.5 -6.5t-13.5 3.5q-6 34 -19.5 59t-50.5 36q-17 4 -41 5t-56 1h-61q-11 0 -17 -1t-9 -5t-3.5 -12t-0.5 -22v-211z" />
    <glyph glyph-name="G" unicode="G" horiz-adv-x="747" 
d="M648 102q0 -30 5 -48t19 -23q6 -6 -1 -12q-9 0 -22 -2.5t-27 -6.5q-40 -11 -89 -18.5t-90 -7.5q-90 0 -168.5 26t-136.5 85q-45 45 -68.5 103t-23.5 124q0 64 21.5 125.5t68.5 111.5q51 53 127 85t190 32q43 0 78.5 -6t48.5 -9q14 -3 33.5 -7t28.5 -2q0 -25 4 -62.5
t11 -82.5q-2 -6 -12 -7t-15 4q-11 40 -30 67.5t-45 44t-59 23.5t-71 7q-73 0 -125.5 -24t-86.5 -64t-50.5 -92t-16.5 -108q0 -72 18.5 -134.5t56 -109t94 -73t131.5 -26.5q47 0 74.5 8.5t35.5 21.5q4 5 7 19t3 38v40q0 31 -1.5 49.5t-8 28t-19.5 13t-36 6.5l-44 5
q-6 3 -5.5 13t5.5 12q22 -2 60 -2.5t83 -0.5q56 0 106 3q5 -3 5.5 -11.5t-4.5 -13.5l-16 -2q-16 -2 -24.5 -8t-12.5 -16.5t-5 -25.5t-1 -34v-56z" />
    <glyph glyph-name="H" unicode="H" horiz-adv-x="806" 
d="M260 323q-18 0 -28 -1t-15 -4t-6 -9.5t-1 -17.5v-141q0 -39 1.5 -63t8 -37t18.5 -18t33 -7l29 -3q5 -3 4 -13t-6 -12q-41 2 -69.5 2.5t-57.5 0.5q-32 0 -59.5 -1t-56.5 -2q-5 2 -6 11t4 14l17 3q21 4 32.5 9t17.5 18t7 36t1 62v360q0 39 -2 63t-8 37.5t-18 18.5t-31 7
l-26 2q-5 3 -4 13t6 12q37 -1 65.5 -2t60.5 -1q29 0 56.5 0.5t59.5 2.5q5 -2 6 -12t-4 -13l-19 -2q-22 -2 -34 -7.5t-18 -18.5t-7 -37t-1 -63v-115q0 -12 1 -18.5t6 -9.5t15 -3.5t28 -0.5h286q18 0 28 0.5t15 3.5t6 9.5t1 18.5v115q0 39 -1 63t-7 37t-18.5 18.5t-34.5 7.5
l-19 2q-5 3 -4 13t6 12q35 -2 62.5 -2.5t58.5 -0.5q29 0 56.5 0.5t61.5 2.5q5 -2 6 -12t-4 -13l-21 -2q-22 -2 -34 -7.5t-18 -18.5t-7 -37t-1 -63v-360q0 -39 1 -62.5t7 -36.5t18 -18t34 -8l24 -3q5 -3 4 -13t-6 -12q-36 2 -64 2.5t-57 0.5q-31 0 -59.5 -0.5t-61.5 -2.5
q-5 2 -6 11t4 14l19 3q23 3 35 8t17.5 18t6.5 36.5t2 62.5v141q0 11 -1 17.5t-6 9.5t-15 4t-28 1h-286z" />
    <glyph glyph-name="I" unicode="I" horiz-adv-x="338" 
d="M128 508q0 40 -1 64t-7 37.5t-18.5 19t-34.5 7.5l-25 2q-5 3 -4 13t6 12q38 -2 66 -2.5t60 -0.5q30 0 58 0.5t66 2.5q5 -2 6 -12t-4 -13l-25 -2q-22 -2 -34.5 -7.5t-18.5 -19t-7 -37.5t-1 -64v-356q0 -40 1 -63.5t7 -37t18.5 -18.5t34.5 -8l25 -3q5 -3 4 -13t-6 -12
q-38 2 -66 2.5t-58 0.5q-32 0 -60 -0.5t-66 -2.5q-5 2 -6 11t4 14l25 3q22 3 34.5 8t18.5 18.5t7 37t1 63.5v356z" />
    <glyph glyph-name="J" unicode="J" horiz-adv-x="345" 
d="M143 508q0 42 -2.5 66.5t-10 37.5t-21 17.5t-35.5 6.5l-25 2q-5 3 -4 13t6 12q44 -2 73 -2.5t61 -0.5q30 0 57 0.5t57 2.5q5 -2 6 -12t-4 -13l-15 -2q-22 -3 -34.5 -8.5t-18.5 -19t-7 -37t-1 -63.5v-371q0 -60 -4.5 -109.5t-18.5 -84.5q-12 -30 -31.5 -56.5t-44.5 -46
t-55.5 -30.5t-65.5 -11q-5 0 -12 0.5t-14 2.5t-12 6t-5 12q0 13 10 29.5t26 16.5q17 0 37 -6q11 -3 21 -5t21 -2q16 0 25.5 7.5t14.5 18.5q9 18 14 51.5t7.5 71t3.5 73t1 55.5v378z" />
    <glyph glyph-name="K" unicode="K" horiz-adv-x="675" 
d="M128 510q0 39 -1 63t-7 37.5t-18 18.5t-34 7l-25 2q-5 3 -4 13t6 12q37 -2 64.5 -2.5t61.5 -0.5q29 0 56.5 0.5t59.5 2.5q5 -2 6 -12t-4 -13l-19 -2q-22 -2 -34 -7.5t-18 -18.5t-7 -37t-1 -63v-115q0 -14 2.5 -26t10.5 -12q7 0 15 3.5t13 7.5q11 9 27 24.5t24 23.5
l108 107l18.5 18.5t23.5 24.5t22 24t14 16q7 10 7 16t-17 10l-27 6q-5 5 -4.5 13t6.5 12q26 -2 55 -2.5t55 -0.5q54 0 99 3q5 -4 6 -12t-4 -13q-20 -2 -46 -9t-47 -19t-59.5 -44t-80.5 -72l-90 -85q-11 -11 -17 -18t-6 -13q0 -8 19 -31q72 -82 131.5 -150.5t118.5 -130.5
q18 -18 36 -28t44 -13l27 -3q5 -4 4 -13.5t-6 -11.5q-39 3 -112 3q-31 0 -59 -0.5t-63 -2.5q-5 2 -7 11t3 14l23 4q11 2 17.5 4t6.5 6q0 5 -4.5 10.5t-9.5 12.5q-14 18 -34 40t-49 54l-80 90q-21 24 -35.5 40t-25 26t-19 14t-17.5 4q-11 0 -14 -11t-3 -37v-129q0 -39 1 -63
t7 -37t17.5 -18t32.5 -7l27 -3q5 -3 4 -13t-6 -12q-37 2 -65 2.5t-57 0.5q-31 0 -58 -0.5t-58 -2.5q-5 2 -6 11t4 14l20 3q20 3 31 8t16.5 18t6.5 36.5t1 62.5v360z" />
    <glyph glyph-name="L" unicode="L" horiz-adv-x="553" 
d="M128 510q0 39 -1.5 63t-7.5 37.5t-19 18.5t-37 7l-25 2q-5 3 -4 13t6 12q42 -2 71 -2.5t59 -0.5q29 0 57 0.5t66 2.5q5 -2 6 -12t-4 -13l-24 -2q-22 -2 -34.5 -7t-18.5 -18.5t-7 -37.5t-1 -63v-348q0 -47 3.5 -70.5t17.5 -37.5q4 -4 10.5 -8t18.5 -7.5t31 -5.5t49 -2
q32 0 52.5 1t34 2.5t21.5 4t14 5.5q15 9 33 35t33 64q5 4 15 1.5t10 -7.5q0 -4 -4.5 -22.5t-11 -41.5t-14 -44.5t-12.5 -31.5q-19 1 -46 1.5t-59 0.5q-32 1 -69 1h-75h-92h-31q-14 0 -29 -0.5t-32 -1t-38 -1.5q-5 2 -6 11t4 14l30 3q22 2 34 7t18 18t7 37t1 63v360z" />
    <glyph glyph-name="M" unicode="M" horiz-adv-x="912" 
d="M389 267q17 -35 34 -69.5t35 -67.5h2q20 35 39 73.5t38 76.5l94 191q35 69 54.5 113t21.5 79q26 -2 43 -2.5t32 -0.5q19 0 42.5 0.5t46.5 2.5q5 -3 5 -13q0 -9 -4 -12l-21 -2q-24 -3 -38 -8t-21 -15.5t-9 -28t-2 -43.5q1 -40 1.5 -92.5t1.5 -110.5t3 -118t5 -114
q1 -19 2 -33t5.5 -24t14 -16t27.5 -8l32 -3q5 -5 4 -13.5t-6 -11.5q-62 3 -118 3q-26 0 -58 -0.5t-63 -2.5q-5 4 -6 12t4 13l29 3q18 2 28 6.5t14.5 14t5.5 25t1 39.5l-3 417h-2q-3 -4 -10.5 -19.5t-17 -35t-20 -40t-17.5 -35.5l-89 -175q-17 -33 -33.5 -66.5t-30.5 -63.5
t-25.5 -55.5t-18.5 -42.5q-3 -4 -10 -4q-2 0 -4.5 1t-4.5 3q-6 20 -17.5 47t-24.5 54.5t-25 54t-21 44.5l-90 193q-16 35 -31.5 72t-32.5 72h-2q-3 -47 -5.5 -90.5t-4.5 -87.5q-2 -46 -4.5 -108.5t-2.5 -126.5q0 -28 1.5 -45.5t6.5 -27.5t13.5 -14.5t23.5 -5.5l38 -3
q5 -5 4.5 -14t-5.5 -11q-26 2 -54 2.5t-57 0.5q-24 0 -50 -0.5t-52 -2.5q-5 4 -6 12.5t4 12.5l22 3q16 2 26.5 5t18 11.5t11.5 24t6 41.5q2 25 4 48.5t4.5 49t4.5 55.5t4 67q4 63 6.5 122t4.5 101q1 24 -1 39t-9 24t-20.5 14t-36.5 9l-16 2q-4 5 -3 13.5t7 11.5
q23 -2 41.5 -2.5t37.5 -0.5q17 0 37.5 0.5t45.5 2.5q-3 -29 13 -73t39 -92z" />
    <glyph glyph-name="N" unicode="N" horiz-adv-x="783" 
d="M666 170v-36t0.5 -53t1 -52t1.5 -34q-4 -11 -19 -11q-5 6 -13 16.5t-23 28t-37 43.5t-55 63l-232 264q-10 12 -26.5 31.5t-34 39.5t-32.5 38t-23 26h-2q-3 -9 -4 -25.5t-1 -39.5v-218q0 -18 0.5 -48t2.5 -61.5t5.5 -59t9.5 -38.5q5 -8 18.5 -12.5t32.5 -6.5l31 -3
q5 -6 4 -13.5t-6 -11.5q-34 2 -61.5 2.5t-55.5 0.5q-32 0 -55 -0.5t-49 -2.5q-5 4 -6 12t4 13l27 3q36 3 44 20q5 13 8 40.5t4 58t1 59.5v48v289q0 21 -3 38t-19 34q-11 11 -27.5 16.5t-34.5 7.5l-17 2q-5 5 -4.5 13.5t6.5 11.5q32 -2 65.5 -2.5t47.5 -0.5q26 0 46 3
q7 -19 30.5 -50.5t50.5 -64.5t52.5 -62t37.5 -43l97 -109q51 -59 90.5 -102t74.5 -79h2q3 4 3.5 15t0.5 27v214q0 18 -0.5 48t-2.5 61.5t-6 59t-11 38.5q-5 7 -18.5 11.5t-43.5 8.5l-17 2q-5 5 -4.5 14t6.5 11q35 -2 62 -2.5t56 -0.5q32 0 54.5 0.5t48.5 2.5q6 -4 6.5 -12
t-4.5 -13l-14 -2q-49 -8 -56 -21q-6 -14 -9.5 -41t-4.5 -58t-1 -61v-46v-239z" />
    <glyph glyph-name="O" unicode="O" horiz-adv-x="795" 
d="M415 15q45 0 87 17t75 52.5t52.5 89.5t19.5 128q0 62 -14.5 123.5t-46 110t-81.5 79t-122 30.5q-39 0 -81 -14.5t-77.5 -48.5t-58 -89.5t-22.5 -137.5q0 -56 14.5 -116t46.5 -109.5t83 -82t125 -32.5zM402 -16q-83 0 -149 27.5t-112 74.5t-70.5 108t-24.5 129
q0 75 26.5 139.5t74 112t113 74.5t142.5 27q87 0 152 -29t108.5 -76.5t65 -109.5t21.5 -128q0 -76 -27 -140t-74 -110.5t-110.5 -72.5t-135.5 -26z" />
    <glyph glyph-name="P" unicode="P" horiz-adv-x="549" 
d="M210 150q0 -39 1.5 -62.5t7.5 -36.5t19.5 -18t37.5 -8l27 -3q5 -4 4 -13.5t-6 -11.5q-43 2 -71.5 2.5t-58.5 0.5q-32 0 -60.5 -0.5t-61.5 -2.5q-5 2 -6 11t4 14l21 3q22 3 34 8t18 18t7 36.5t1 62.5v369q0 32 -1 52t-5.5 32t-14 16.5t-26.5 6.5l-36 4q-5 5 -4.5 13.5
t6.5 11.5q40 5 87.5 6.5t110.5 1.5t110 -9t82 -31t57.5 -60t22.5 -90q0 -35 -9.5 -61t-24.5 -45t-32.5 -32t-33.5 -21q-33 -16 -70 -23t-68 -7q-5 2 -5.5 10t4.5 10q81 15 114 58.5t33 109.5q0 73 -41.5 116.5t-119.5 43.5q-20 0 -31 -1t-16 -5t-6 -11t-1 -19v-446z" />
    <glyph glyph-name="Q" unicode="Q" horiz-adv-x="795" 
d="M415 15q45 0 87 17t75 52.5t52.5 89.5t19.5 128q0 62 -14.5 123.5t-46 110t-81.5 79t-122 30.5q-39 0 -81 -14.5t-77.5 -48.5t-58 -89.5t-22.5 -137.5q0 -56 14.5 -116t46.5 -109.5t83 -82t125 -32.5zM402 676q87 0 152 -29t108.5 -76.5t65 -109.5t21.5 -128
q0 -62 -18 -116t-50.5 -97t-77 -74t-96.5 -47q-2 -5 8 -15q19 -18 45 -41.5t55.5 -46t61 -41t61.5 -28.5q28 -9 52 -11.5t41 -2.5q8 0 22.5 2t25.5 7q5 -1 6 -6t-1 -9q-24 -14 -55 -20t-57 -6q-35 0 -76 8.5t-86 28.5q-31 14 -58.5 31.5t-51 35.5t-42.5 34.5t-33 30.5
q-11 11 -19 17.5t-15 10.5t-15 5.5t-18 3.5q-20 3 -45.5 8.5t-52.5 15.5q-50 19 -89.5 50t-67.5 71.5t-42.5 88.5t-14.5 102q0 75 26.5 139.5t74 112t113 74.5t142.5 27z" />
    <glyph glyph-name="R" unicode="R" horiz-adv-x="645" 
d="M210 366q0 -29 3 -33q2 -2 16.5 -3.5t52.5 -1.5q27 0 54 4.5t49 21.5q20 16 35 44.5t15 79.5q0 30 -9.5 57.5t-29 49t-49.5 34.5t-72 13q-23 0 -36 -1t-19.5 -4.5t-8 -10t-1.5 -16.5v-234zM128 509q0 36 -1 58t-5.5 34.5t-13.5 17.5t-24 7l-32 4q-5 4 -5 13t6 12
q42 4 95.5 6t127.5 2q47 0 89.5 -5.5t77.5 -24.5q36 -19 59.5 -53t23.5 -87q0 -36 -12.5 -63.5t-31.5 -48t-40.5 -34.5t-40.5 -21q-4 -5 -1.5 -11.5t6.5 -12.5q30 -48 55.5 -88t49.5 -72t47 -58.5t49 -47.5q13 -11 31 -18.5t38 -9.5q4 -2 4.5 -6.5t-3.5 -7.5q-15 -5 -44 -5
q-32 0 -58.5 5.5t-50.5 19.5t-47.5 38.5t-50.5 62.5q-10 14 -22 33t-25 39.5l-26 41t-25 37.5q-11 17 -26 24.5t-45 7.5q-17 0 -26.5 -0.5t-14 -2.5t-5.5 -6.5t-1 -12.5v-126q0 -39 1 -62.5t7 -36.5t18 -18t34 -8l21 -3q5 -4 4 -13.5t-6 -11.5q-34 2 -61.5 2.5t-57.5 0.5
q-32 0 -61 -0.5t-64 -2.5q-5 2 -6 11t4 14l25 3q22 3 34 8t18 18t7 36.5t1 62.5v359z" />
    <glyph glyph-name="S" unicode="S" horiz-adv-x="489" 
d="M437 169q0 -41 -15 -75t-43 -58.5t-67 -38t-88 -13.5q-32 0 -57.5 4t-45 10t-33 12.5t-20.5 10.5q-5 8 -9.5 24.5t-8 36t-6 40.5t-3.5 39q4 5 12.5 6.5t11.5 -3.5q6 -19 17 -44.5t31 -49t50 -39.5t74 -16q31 0 54.5 9.5t39.5 25.5t23.5 36.5t7.5 43.5q0 16 -2.5 33.5
t-11 35.5t-25 35.5t-43.5 35.5l-95 62q-19 12 -38 29t-34.5 38.5t-25.5 47.5t-10 57q0 36 13.5 67t39.5 54.5t64 37t87 13.5q23 0 48 -3.5t45 -9.5q10 -2 19.5 -4t15.5 -2q3 -9 6.5 -23.5t6 -31t4 -34t1.5 -33.5q-3 -5 -12 -6.5t-13 3.5q-5 18 -13.5 38t-23.5 36.5t-39 27.5
t-60 11q-37 0 -60 -11t-36 -27.5t-18 -36t-5 -36.5q0 -22 8 -40.5t20.5 -34t27.5 -27.5t29 -21l80 -50q24 -15 46.5 -33.5t40 -41.5t28 -52t10.5 -65z" />
    <glyph glyph-name="T" unicode="T" horiz-adv-x="660" 
d="M368 150q0 -39 1 -63t7 -37t18 -18t34 -7l32 -3q5 -3 4 -13t-6 -12q-43 2 -72 2.5t-59 0.5t-60.5 -0.5t-78.5 -2.5q-5 2 -5.5 11.5t5.5 13.5l36 3q21 2 33.5 7t19 18t8 37t1.5 63v447q0 23 -4 27.5t-26 4.5h-55q-16 0 -34 -0.5t-34.5 -3t-31 -7.5t-23.5 -14
q-18 -17 -27.5 -33.5t-17.5 -35.5q-6 -5 -14.5 -2t-11.5 9q6 17 11.5 36.5t10.5 39.5t9 39t7 34q2 2 9 2q8 0 10 -2q5 -24 27.5 -27.5t57.5 -3.5h405q20 0 32.5 0.5t21 3.5t13.5 8.5t11 15.5q4 2 10 1t8 -4q-4 -15 -7.5 -36.5t-5.5 -43.5t-2.5 -41.5t0.5 -30.5
q-3 -6 -12.5 -6.5t-13.5 4.5q-1 9 -3 20t-5 21.5t-7 19t-10 12.5q-34 25 -116 25h-71q-11 0 -17 -0.5t-8.5 -4t-3 -10.5t-0.5 -19v-445z" />
    <glyph glyph-name="U" unicode="U" horiz-adv-x="746" 
d="M605 409q0 23 -0.5 54t-2.5 61.5t-6 55.5t-10 36q-10 18 -50 21l-25 2q-5 5 -4 13t6 11q57 -3 114 -3q32 0 55 0.5t50 2.5q6 -4 6 -12q0 -7 -4 -12l-24 -2q-19 -2 -32.5 -8t-17.5 -16q-6 -12 -8.5 -37.5t-4 -55.5t-1.5 -60v-51v-113q0 -33 -3 -66t-11 -64t-21.5 -59
t-34.5 -50q-32 -35 -83.5 -54t-107.5 -19q-52 0 -101 11.5t-86 43.5q-40 33 -59 89.5t-19 146.5v236q0 39 -1 63t-7 37.5t-18 18.5t-34 7l-25 2q-5 3 -4 12.5t6 11.5q38 -2 66 -2.5t58 -0.5q31 0 58.5 0.5t64.5 2.5q5 -2 6 -11.5t-4 -12.5l-24 -2q-22 -2 -34 -7t-18 -18.5
t-7 -37.5t-1 -63v-216q0 -60 10 -109.5t34 -84.5t63 -54t96 -19q54 0 92 20t62 56t35 84.5t11 105.5v115z" />
    <glyph glyph-name="V" unicode="V" horiz-adv-x="676" 
d="M100 554q-17 42 -33 60t-48 22l-18 2q-5 5 -4.5 13t6.5 12q22 -2 47 -2.5t57 -0.5q33 0 61 0.5t60 2.5q5 -3 6 -11.5t-4 -13.5l-15 -2q-29 -4 -37.5 -8.5t-9.5 -10.5q2 -8 14.5 -45.5t35.5 -94.5q35 -88 69.5 -173.5t72.5 -171.5q12 25 25 55t26 60.5t25 58.5t20 48
q11 25 24.5 57.5t26.5 64t24.5 59t17.5 43.5t7.5 25t1.5 14t-9.5 10.5t-35.5 8.5l-18 2q-5 5 -4 13.5t6 11.5q21 -2 48 -2.5t56 -0.5q47 0 97 3q5 -3 5.5 -12t-3.5 -13l-30 -2q-18 -2 -30 -10.5t-22 -24.5q-21 -35 -49.5 -94t-62.5 -136l-54 -123q-15 -35 -30.5 -72.5
t-30 -72.5t-26 -65.5t-17.5 -50.5q-5 -3 -11 -3q-8 0 -15 3q-8 32 -20 66.5t-26 66.5z" />
    <glyph glyph-name="W" unicode="W" horiz-adv-x="960" 
d="M-3 639q-5 5 -4 13t7 11q20 -2 50 -2.5t53 -0.5h24q15 0 30.5 0.5l31 1t28.5 1.5q7 -2 7 -11q0 -8 -5 -13l-23 -2q-33 -3 -33 -17q0 -9 14.5 -44.5t37.5 -89.5q42 -94 85.5 -187t87.5 -186q18 38 37.5 79t39.5 83q6 14 11 25.5t5 15.5q0 7 -8 26q-26 60 -53.5 120
t-56.5 120q-11 23 -24.5 38t-39.5 17l-24 2q-5 6 -4.5 13.5t6.5 10.5q22 -2 49.5 -2.5t57.5 -0.5q75 0 110 3q5 -2 6 -10t-4 -14l-26 -2q-15 -1 -22.5 -3.5t-10 -8.5t0.5 -16t11 -27q15 -37 35.5 -82t41.5 -92q14 29 28 59.5t31 71.5q13 32 19.5 51t5.5 29t-7.5 13.5
t-18.5 4.5l-30 2q-5 8 -4 15t6 9q40 -3 94 -3q25 0 52 0.5t44 2.5q5 -2 6 -10t-4 -14l-29 -2q-16 -1 -27.5 -9.5t-21 -21t-17.5 -28t-16 -30.5q-8 -14 -19 -35.5t-22.5 -44.5t-21 -44.5t-15.5 -34.5q-4 -8 -6.5 -14.5t-2.5 -9.5q0 -7 7 -24q26 -58 51.5 -114.5t50.5 -113.5
q23 53 45 105t45 106q7 18 19.5 49l25 62t22.5 56t13 32q10 27 20 54.5t10 36.5q0 21 -33 23l-29 2q-6 7 -5.5 14t6.5 10q29 -2 51 -2.5t45 -0.5q29 0 51 0.5t42 2.5q6 -2 6.5 -10t-4.5 -14l-19 -2q-19 -2 -31.5 -10t-24.5 -27t-26.5 -52t-36.5 -85l-73 -169
q-32 -77 -63 -151.5t-62 -155.5q-5 -3 -12 -3q-8 0 -14 3q-12 33 -28 72t-33 77t-32.5 73.5t-27.5 61.5q-14 -27 -31 -63.5t-34 -75t-33 -76.5t-27 -69q-5 -3 -12 -3q-8 0 -15 3q-6 16 -16 39t-20 46.5t-19 44t-14 31.5q-48 105 -95 208.5t-96 208.5q-14 31 -28 50t-45 22z
" />
    <glyph glyph-name="X" unicode="X" horiz-adv-x="643" 
d="M666 22q5 -5 4.5 -13t-5.5 -12q-35 2 -65 2.5t-61 0.5q-34 0 -68 -0.5t-61 -2.5q-5 5 -5.5 12.5t3.5 12.5l29 3q34 3 34 13q0 5 -4 14t-18 30q-17 23 -35 49t-36.5 53t-37 52.5t-34.5 46.5q-10 -13 -27.5 -38t-38 -55t-40.5 -62t-35 -58q-13 -23 -13 -32q0 -10 29 -13
l27 -3q5 -5 4.5 -13t-5.5 -12q-27 2 -54.5 2.5t-53.5 0.5t-52.5 -0.5t-50.5 -2.5q-7 3 -7.5 11.5t4.5 13.5l25 3q20 2 37 10.5t31.5 21t27 27.5t23.5 30q4 6 18.5 24t33.5 43.5t41 56t43 60.5q9 13 9 20q0 6 -12 23l-150 215q-25 35 -43 52.5t-44 22.5l-32 7q-4 5 -3.5 14
t5.5 11q35 -2 62 -2.5t54 -0.5q29 0 60 0.5t53 2.5q5 -2 6 -11t-4 -14l-28 -2q-14 -1 -22 -4.5t-8 -8.5q0 -7 8 -20t22 -35q13 -18 29.5 -42.5t34 -50t34 -49.5t30.5 -41q10 12 29.5 41t40.5 61.5t39 61.5t25 40q6 10 10 19t4 14q0 4 -9.5 7.5t-23.5 5.5l-26 3
q-5 5 -4.5 13.5t6.5 11.5q26 -2 51.5 -2.5t54.5 -0.5q28 0 50.5 0.5t45.5 2.5q5 -4 6 -12t-4 -13l-24 -2q-23 -2 -49.5 -24t-57.5 -61q-29 -38 -61.5 -82t-68.5 -95q-10 -15 -10 -19q0 -2 2 -8t11 -18l169 -238q26 -35 47 -49.5t44 -16.5z" />
    <glyph glyph-name="Y" unicode="Y" horiz-adv-x="574" 
d="M336 152q0 -40 2 -64.5t8 -38t18 -18.5t32 -6l38 -3q5 -5 4 -14t-6 -11q-23 1 -41.5 1.5t-34.5 1t-31 0.5h-29q-32 0 -61.5 -0.5t-69.5 -2.5q-5 2 -6 11t4 14l31 3q22 2 34 7t18 18.5t7 37.5t1 64v51q0 21 -1 35t-4 26.5t-9.5 27t-17.5 35.5l-118 230q-13 25 -22.5 39
t-18.5 21.5t-18 10.5t-20 5l-28 5q-5 5 -4 13.5t6 11.5q24 -2 52 -2.5t64 -0.5q69 0 107 3q7 -2 7.5 -11t-4.5 -14l-13 -2q-26 -5 -34 -8.5t-8 -9.5q0 -4 4 -15t9.5 -23.5t10.5 -23.5t7 -15q28 -56 56 -113t57 -109q23 40 47 82.5t47 86.5q10 19 21.5 40.5t21.5 40.5
t16 32.5t6 18.5t-12 9.5t-30 6.5l-18 2q-5 5 -4.5 13.5t6.5 11.5q27 -2 50 -2.5t46 -0.5t45 0.5t48 2.5q6 -4 6.5 -12t-4.5 -13l-28 -5q-20 -3 -36 -16t-31 -34t-30.5 -48.5t-34.5 -59.5l-63 -109q-17 -28 -26.5 -46t-14 -34t-5.5 -34.5t-1 -47.5v-52z" />
    <glyph glyph-name="Z" unicode="Z" horiz-adv-x="641" 
d="M352 452q38 56 61.5 87.5t35.5 54.5q5 9 8.5 15.5t3.5 11.5q0 4 -8 6t-28 2h-149q-60 0 -95.5 -6.5t-53.5 -26.5q-16 -17 -27 -36t-17 -32q-7 -3 -14.5 -1t-10.5 8q9 26 20.5 67t20.5 83q8 6 17 0q1 -9 5.5 -14t15 -7.5t29.5 -3t49 -0.5h264q54 0 80.5 0.5t34.5 2.5
q6 -2 6 -9q-10 -9 -30 -33t-43 -54.5t-47.5 -64.5t-43.5 -62l-165 -238q-4 -6 -20 -29t-33.5 -49t-31.5 -48.5t-14 -28.5q0 -8 7 -10t21 -4q20 -2 57 -2h91q24 0 50.5 0.5t51.5 3t47 7t36 12.5q22 12 39.5 37.5t30.5 54.5q7 2 15 1t10 -8q-3 -17 -8.5 -38t-11.5 -41
t-12.5 -37t-12.5 -26q-20 1 -41 1.5t-44 0.5q-23 1 -47 1h-50h-257q-40 0 -67.5 -1t-44.5 -2q-5 2 -5 12q8 7 21.5 23t29 35.5t31 40t27.5 37.5z" />
    <glyph glyph-name="bracketleft" unicode="[" horiz-adv-x="320" 
d="M117 686h69q28 0 55 -1t55 -2q5 -3 5.5 -10t-4.5 -12l-89 -10q-10 -1 -15 -3t-10 -7q-4 -4 -6.5 -18.5t-4 -36t-2 -47.5t-0.5 -54v-434q0 -28 0.5 -54t2 -47.5t4 -36t6.5 -18.5q5 -5 10 -7t15 -3l89 -10q5 -5 4.5 -12t-5.5 -10q-28 -1 -55 -2t-55 -1h-69v836z" />
    <glyph glyph-name="backslash" unicode="\" horiz-adv-x="309" 
d="M279 -16h-58l-191 702h58z" />
    <glyph glyph-name="bracketright" unicode="]" horiz-adv-x="320" 
d="M203 -150h-69q-28 0 -55 1t-55 2q-5 3 -5.5 10t4.5 12l89 10q10 1 15 3t10 7q4 4 6.5 18.5t4 36t2 47.5t0.5 54v434q0 28 -0.5 54t-2 47.5t-4 36t-6.5 18.5q-5 5 -10 7t-15 3l-89 10q-5 5 -4.5 12t5.5 10q28 1 55 2t55 1h69v-836z" />
    <glyph glyph-name="asciicircum" unicode="^" 
d="M388 244l-138 311l-138 -311h-63l177 382h48l176 -382h-62z" />
    <glyph glyph-name="underscore" unicode="_" 
d="M500 -125h-500v50h500v-50z" />
    <glyph glyph-name="grave" unicode="`" horiz-adv-x="360" 
d="M237 454q-2 -14 -16 -12l-129 135q-17 17 -17 30q0 12 18 27q17 15 31 13q5 -1 11 -7.5t11 -16.5z" />
    <glyph glyph-name="a" unicode="a" horiz-adv-x="404" 
d="M112 91q0 -6 2.5 -16.5t9.5 -20t19.5 -16.5t31.5 -7q15 0 34 8.5t27 16.5q9 9 11 20t2 27l2 59q0 8 -2.5 10.5t-7.5 2.5t-16 -2.5t-25 -7.5q-45 -15 -66.5 -30t-21.5 -44zM237 207q11 4 13.5 11t3.5 18l1 46q0 14 -2.5 29.5t-10.5 28t-22.5 21t-37.5 8.5q-21 0 -41.5 -11
t-22.5 -34q-1 -12 -2.5 -20.5t-7.5 -13.5q-11 -9 -28.5 -14t-28.5 -5q-14 0 -14 14q0 19 19 41t47 40t60.5 30t59.5 12q54 0 80 -30t24 -87l-6 -174q-2 -35 7.5 -61t38.5 -26q8 0 14 2t11 4q4 2 7.5 4.5t5.5 2.5q7 0 7 -13q0 -2 -6 -9t-17.5 -15t-27 -14t-33.5 -6t-35 7
t-30 24q-3 5 -7 9.5t-9 4.5t-14.5 -6t-24.5 -14q-17 -9 -34 -17t-38 -8q-44 0 -70 23q-14 13 -22.5 31t-8.5 39q0 29 17.5 48.5t65.5 36.5z" />
    <glyph glyph-name="b" unicode="b" 
d="M149 136q0 -26 6 -48.5t19 -38.5q27 -33 76 -33q35 0 60 14t40.5 37t23 53t7.5 62q0 39 -10 72t-29 58t-47.5 39t-65.5 14q-23 0 -40 -4.5t-28 -11.5q-8 -5 -10 -16.5t-2 -40.5v-156zM75 564q0 22 -0.5 35.5t-3.5 21.5t-9.5 13.5t-17.5 12.5l-10 6q-4 2 -4 10t4 10
q9 3 21.5 7.5t27.5 9.5t30.5 11t29.5 14q7 0 10 -6q-2 -26 -3 -58.5t-1 -65.5v-189q0 -13 2.5 -17t7.5 -4q20 11 49 22t66 11q43 0 78 -15t60 -41.5t39 -62.5t14 -77q0 -50 -17 -91.5t-47.5 -71.5t-73 -46.5t-92.5 -16.5q-28 0 -49 4t-36 9q-16 5 -26 9t-16 4t-11.5 -5
t-9.5 -10q-1 -1 -4 -1q-7 0 -10 6q1 11 1.5 28.5t0.5 56.5v477z" />
    <glyph glyph-name="c" unicode="c" horiz-adv-x="400" 
d="M278 408q17 0 43 -4t46 -13q6 -5 10.5 -16t4.5 -24q0 -14 -6.5 -25.5t-15.5 -11.5q-8 0 -14 7q-17 20 -43 36.5t-57 16.5q-26 0 -51 -10.5t-44.5 -30.5t-31 -50t-11.5 -70q0 -29 10 -59.5t30.5 -55.5t50.5 -40.5t70 -15.5q44 0 69 17t42 43q6 2 11.5 -2.5t6.5 -11.5
q-13 -28 -32.5 -47.5t-42 -31.5t-46.5 -17.5t-46 -5.5q-40 0 -75.5 12.5t-61.5 38.5t-42 62.5t-16 85.5q0 40 14.5 80t44.5 72t75.5 51.5t107.5 19.5z" />
    <glyph glyph-name="d" unicode="d" horiz-adv-x="509" 
d="M350 296q0 15 -3 23t-8 16q-11 16 -33 29t-51 13q-34 0 -60 -13.5t-43 -36.5t-26 -53t-9 -63q0 -34 9.5 -66t28 -56.5t46.5 -39.5t65 -15q20 0 42.5 8t34.5 20q5 5 6 15t1 22v197zM424 146q0 -60 4 -88t25 -28q8 0 20 3t23 7q5 -2 5.5 -15t-6.5 -17q-16 -2 -34.5 -6
t-36.5 -8.5t-34.5 -9t-26.5 -8.5q-11 0 -11 8v17v19q0 9 -2 12h-4q-33 -23 -61.5 -34.5t-64.5 -11.5q-42 0 -76 15t-58 41.5t-37.5 61.5t-13.5 74q0 52 18.5 94.5t51.5 72.5t77 46.5t95 16.5q26 0 42.5 -3t24.5 -6q6 0 6 14v151q0 22 -0.5 35.5t-3.5 21.5t-9.5 13.5
t-17.5 12.5l-10 6q-4 2 -4 10t4 10q19 6 50 17t58 25q7 0 10 -6q-1 -23 -2 -57t-1 -67v-439z" />
    <glyph glyph-name="e" unicode="e" horiz-adv-x="396" 
d="M192 286q55 0 76.5 2.5t27.5 7.5q2 2 4 5.5t2 13.5t-4 21.5t-13 20.5t-23.5 15t-36.5 6t-42 -9t-35 -22t-24.5 -28.5t-9.5 -27.5q0 -2 1 -3.5t6 -1.5h71zM130 256q-20 0 -23.5 -4t-3.5 -23q0 -38 11 -72t32 -59.5t52 -40.5t71 -15q25 0 47 10t45 39q8 2 12.5 -1.5
t5.5 -10.5q-12 -26 -31 -43.5t-40.5 -28.5t-44 -16t-41.5 -5q-49 0 -86 18.5t-59 47.5q-23 29 -32.5 63t-9.5 67q0 46 14.5 87t41 72t63.5 49t82 18q32 0 58.5 -10t45 -27t28.5 -38.5t10 -43.5q0 -11 -1 -17t-3 -9q-2 -5 -14.5 -6t-44.5 -1h-185z" />
    <glyph glyph-name="f" unicode="f" horiz-adv-x="290" 
d="M186 352q-13 0 -15 -4.5t-2 -24.5v-211q0 -27 1 -43.5t4.5 -26t11 -13t21.5 -4.5l36 -3q5 -4 4 -13.5t-6 -11.5q-34 2 -58.5 2.5t-50.5 0.5q-27 0 -50 -0.5t-46 -2.5q-5 2 -6 11.5t4 13.5l23 3q14 2 21.5 5.5t11.5 12.5t4.5 25.5t0.5 43.5v211q0 20 -2.5 24.5t-17.5 4.5
h-35q-5 3 -5.5 8.5t2.5 10.5l43 21q6 3 10.5 7.5t4.5 12.5q0 44 6.5 89t24.5 87q9 21 24.5 43.5t37.5 41t51.5 30.5t66.5 12q40 0 69 -16.5t29 -43.5q0 -15 -12 -25.5t-26 -10.5t-24 12q-14 17 -34.5 30.5t-45.5 13.5q-48 0 -71 -55q-7 -17 -11 -38.5t-6.5 -44.5t-3.5 -45
t-1 -41v-29q0 -20 2 -24t15 -4h114q4 -4 5 -10.5t-0.5 -13t-4.5 -12t-7 -6.5h-107z" />
    <glyph glyph-name="g" unicode="g" horiz-adv-x="446" 
d="M217 150q41 0 61.5 29t20.5 75q0 25 -5.5 48t-16.5 40t-27.5 27t-39.5 10q-36 0 -60 -30.5t-24 -81.5q0 -27 7.5 -48.5t20 -36.5t29 -23.5t34.5 -8.5zM237 -32q-24 0 -49.5 -2t-36.5 -9q-18 -11 -33 -33t-15 -51q0 -41 33 -70t101 -29q33 0 60.5 8.5t47 23.5t30 34.5
t10.5 40.5q0 46 -30 66.5t-84 20.5h-34zM446 372q4 -2 5.5 -8.5t1 -13.5t-3.5 -12.5t-9 -6.5h-72q2 -13 2 -26v-25q0 -26 -8.5 -54t-28 -51.5t-51.5 -38.5t-80 -15q-14 0 -24.5 1t-19.5 2q-5 -3 -12 -7.5t-14.5 -11.5t-12.5 -16t-5 -20q0 -17 17.5 -29.5t52.5 -12.5
q26 0 56 1.5t63 1.5q21 0 45.5 -3t45.5 -14.5t35 -33.5t14 -59q0 -41 -20.5 -75.5t-55 -60t-79.5 -39.5t-94 -14q-46 0 -78 11t-51.5 28t-28 37.5t-8.5 39.5q0 24 11 37q13 14 32 32t36 35q7 7 11 13t-3 11q-29 8 -51 30.5t-22 48.5q0 6 15 17q13 8 26.5 20t26.5 26
q4 5 7 10t3 9q-13 7 -26 17.5t-24 25.5t-18 34.5t-7 43.5q0 32 13 59.5t35 48t52 32t63 11.5q29 0 54 -6t42 -14q12 -5 20 -8.5t14.5 -5t12.5 -2t14 -0.5h81z" />
    <glyph glyph-name="h" unicode="h" horiz-adv-x="515" 
d="M88 564q0 22 -0.5 35.5t-3.5 21.5t-9.5 13.5t-17.5 12.5l-10 6q-4 2 -4 10t4 10q19 6 50 17t58 25q7 0 10 -6q-1 -23 -2 -57t-1 -67v-210q0 -16 4 -19q27 21 62 36.5t73 15.5q36 0 60.5 -10.5t39.5 -28t22 -41t7 -49.5v-167q0 -27 1 -43.5t4.5 -25.5t11 -13t21.5 -5
l27 -3q5 -4 4 -13.5t-6 -11.5q-27 2 -50.5 2.5t-49.5 0.5q-53 0 -93 -3q-5 2 -6 11.5t4 13.5l20 3q14 2 21.5 6t11.5 13t4.5 25t0.5 43v143q0 48 -23.5 77.5t-71.5 29.5q-26 0 -45 -8t-33 -19t-17.5 -20t-3.5 -35v-168q0 -27 1 -43.5t4.5 -25.5t11 -12.5t21.5 -5.5l21 -3
q5 -3 4 -13t-6 -12q-23 2 -45.5 2.5t-48.5 0.5q-27 0 -50.5 -0.5t-47.5 -2.5q-5 2 -6 11.5t4 13.5l25 3q14 1 21.5 5t11.5 13t4.5 25.5t0.5 43.5v452z" />
    <glyph glyph-name="i" unicode="i" horiz-adv-x="257" 
d="M131 662q23 0 36 -15t13 -36q0 -26 -16 -38.5t-36 -12.5q-23 0 -37 14.5t-14 34.5q0 25 16 39t38 14zM98 287q0 15 -0.5 24t-3 15t-8 11t-15.5 12l-9 6q-3 3 -3 9q0 7 4 9q9 3 22.5 9t28.5 13t29 14t23 13q8 0 10 -6q-2 -26 -3 -59.5t-1 -64.5v-180q0 -27 1 -43.5
t4.5 -25.5t11 -12.5t21.5 -5.5l21 -3q5 -4 4 -13.5t-6 -11.5q-23 2 -45.5 2.5t-48.5 0.5q-52 0 -94 -3q-5 2 -6 11.5t4 13.5l21 3q14 2 21.5 5.5t11.5 12.5t4.5 25.5t0.5 43.5v175z" />
    <glyph glyph-name="j" unicode="j" horiz-adv-x="253" 
d="M133 654q23 0 36 -15t13 -36q0 -26 -16 -38.5t-36 -12.5q-23 0 -37 14.5t-14 34.5q0 25 16 39t38 14zM100 287q0 15 -0.5 24t-3 15t-8 11t-15.5 12l-9 6q-3 3 -3 9q0 7 4 9q9 3 22.5 9t28.5 13t29 14t23 13q8 0 10 -6q-2 -26 -3 -59.5t-1 -64.5v-242q0 -54 -5 -92
t-16 -64q-23 -54 -61.5 -92.5t-90.5 -70.5q-9 2 -13 8.5t-1 14.5q20 10 34 21.5t25 23.5q27 32 40.5 88t13.5 148v252z" />
    <glyph glyph-name="k" unicode="k" horiz-adv-x="482" 
d="M88 564q0 22 -0.5 35.5t-3.5 21.5t-9.5 13.5t-17.5 12.5l-10 6q-4 2 -4 10t4 10q19 6 50 17t58 25q7 0 10 -6q-1 -23 -2 -57t-1 -67v-343q0 -10 2.5 -12.5t15.5 -2.5q17 0 32.5 9t35.5 30l41 44q21 23 28 32.5t7 13.5t-4.5 6t-17.5 4l-24 3q-7 2 -7 12q0 11 7 13h23
q33 0 75 1.5t84 6.5q5 -2 6 -11.5t-4 -13.5l-32 -6q-15 -3 -29 -11t-34 -24q-29 -23 -53 -47t-38 -37q-9 -8 -10.5 -13t3.5 -11q13 -17 27 -34.5t40 -45.5q29 -33 54 -60.5t40 -41.5q11 -10 24.5 -15t27.5 -7l14 -2q5 -4 4.5 -13.5t-6.5 -11.5q-22 2 -46.5 2.5t-48.5 0.5
q-61 0 -104 -3q-6 3 -6.5 12.5t4.5 12.5l18 3q25 3 25 10q0 5 -3.5 11t-13.5 17l-107 124q-13 14 -31 14q-14 0 -16.5 -5.5t-2.5 -28.5v-55q0 -27 1 -43.5t4.5 -25.5t11 -12.5t21.5 -5.5l24 -3q5 -4 4 -13.5t-6 -11.5q-25 2 -48 2.5t-49 0.5q-27 0 -50 -0.5t-46 -2.5
q-5 2 -6 11.5t5 13.5l22 3q14 2 21.5 5.5t11.5 12.5t4.5 25.5t0.5 43.5v452z" />
    <glyph glyph-name="l" unicode="l" horiz-adv-x="247" 
d="M162 112q0 -27 1 -43.5t4.5 -25.5t11 -12.5t21.5 -5.5l24 -3q5 -4 4 -13.5t-6 -11.5q-25 2 -48 2.5t-49 0.5q-27 0 -50 -0.5t-46 -2.5q-5 2 -6 11.5t4 13.5l23 3q14 2 21.5 5.5t11.5 12.5t4.5 25.5t0.5 43.5v452q0 22 -0.5 35.5t-3.5 21.5t-9.5 13.5t-17.5 12.5l-10 6
q-4 2 -4 10t4 10q19 6 50 17t58 25q7 0 10 -6q-1 -23 -2 -57t-1 -67v-473z" />
    <glyph glyph-name="m" unicode="m" horiz-adv-x="787" 
d="M628 257q0 103 -93 103q-29 0 -50.5 -10.5t-32.5 -24.5q-9 -11 -12 -22.5t-3 -37.5v-153q0 -27 1 -43.5t4.5 -25.5t11 -12.5t21.5 -5.5l21 -3q5 -4 4 -13.5t-6 -11.5q-23 2 -45.5 2.5t-48.5 0.5q-27 0 -48.5 -0.5t-42.5 -2.5q-5 2 -6 11.5t4 13.5l18 3q14 2 21.5 6
t11.5 13t4.5 25t0.5 43v145q0 103 -92 103q-31 0 -52 -11t-32 -25q-8 -9 -11.5 -21t-3.5 -36v-155q0 -27 1 -43t4.5 -25t11 -13t21.5 -6l18 -3q5 -4 4 -13.5t-6 -11.5q-41 3 -91 3q-27 0 -50.5 -0.5t-46.5 -2.5q-5 2 -6 11.5t4 13.5l24 3q14 2 21.5 5.5t11.5 12.5t4.5 25.5
t0.5 43.5v175q0 15 -0.5 24t-3 15t-8 11t-15.5 12l-9 6q-3 3 -3 9q0 7 4 9q9 3 22.5 9t28.5 13t28 14t21 13q8 0 11 -7q-2 -17 -2 -29v-18q0 -11 11 -11q29 20 63 35.5t70 15.5q38 0 61.5 -14t44.5 -45q7 -2 12.5 0.5t12.5 7.5q30 21 65.5 36t70.5 15q60 0 89.5 -36
t29.5 -88v-172q0 -27 1 -43.5t4.5 -25.5t11 -12.5t21.5 -5.5l24 -3q5 -4 4 -13.5t-6 -11.5q-25 2 -48 2.5t-49 0.5q-27 0 -48.5 -0.5t-42.5 -2.5q-5 2 -6 11.5t4 13.5l18 3q14 2 21.5 6t11.5 13t4.5 25t0.5 43v145z" />
    <glyph glyph-name="n" unicode="n" horiz-adv-x="525" 
d="M98 287q0 15 -0.5 24t-3 15t-8 11t-15.5 12l-9 6q-3 3 -3 9q0 7 4 9q9 3 22.5 9t28.5 13t28 14t21 13q8 0 11 -7q-2 -17 -2 -29v-18q0 -11 11 -11q32 20 67 35.5t73 15.5q31 0 53 -10t36.5 -27t21 -39.5t6.5 -47.5v-172q0 -27 1 -43.5t4.5 -25.5t11 -12.5t21.5 -5.5
l22 -3q5 -4 4 -13.5t-6 -11.5q-23 2 -45.5 2.5t-48.5 0.5q-53 0 -93 -3q-5 2 -6 11.5t4 13.5l19 3q14 2 21.5 6t11.5 13t4.5 25t0.5 43v149q0 43 -21.5 71t-72.5 28q-29 0 -51.5 -10.5t-33.5 -24.5q-10 -13 -12.5 -25.5t-2.5 -34.5v-153q0 -27 1 -43t4.5 -25t11 -13t21.5 -6
l18 -3q5 -4 4 -13.5t-6 -11.5q-41 3 -91 3q-52 0 -94 -3q-5 2 -6 11.5t4 13.5l21 3q14 2 21.5 5.5t11.5 12.5t4.5 25.5t0.5 43.5v175z" />
    <glyph glyph-name="o" unicode="o" horiz-adv-x="486" 
d="M365 185q0 32 -7 66t-22 62.5t-39.5 46.5t-60.5 18q-50 0 -82.5 -45t-32.5 -128q0 -34 8 -68t23.5 -61t40 -43.5t57.5 -16.5t55 15.5t35.5 40t19 54.5t5.5 59zM248 408q42 0 79 -15t64.5 -42.5t43.5 -65.5t16 -84q0 -47 -15.5 -86.5t-43 -68t-66.5 -44.5t-86 -16
q-43 0 -80.5 14.5t-65 41.5t-43.5 65t-16 85t16.5 87t45.5 68.5t68 44.5t83 16z" />
    <glyph glyph-name="p" unicode="p" horiz-adv-x="507" 
d="M159 101q0 -24 7.5 -36t22.5 -24q15 -11 35.5 -16.5t36.5 -5.5q31 0 55 13.5t40.5 37.5t25.5 57t9 72q0 30 -8.5 59t-25.5 51.5t-42 36.5t-59 14q-32 0 -54.5 -9.5t-30.5 -18.5q-7 -8 -9.5 -21t-2.5 -38v-172zM85 287q0 15 -0.5 24t-3 15t-8 11t-15.5 12l-9 6q-3 3 -3 9
q0 7 4 9q20 8 49.5 24t49.5 30q9 0 12 -7q-2 -14 -3 -25t-1 -21q0 -13 9 -13q5 2 18.5 9.5t32.5 16t42 15t47 6.5q38 0 68.5 -14.5t52.5 -39t33.5 -58t11.5 -71.5q0 -52 -18 -96t-50.5 -75.5t-77.5 -49.5t-98 -18q-14 0 -31 1t-24 3q-7 -2 -10.5 -7t-3.5 -21v-105
q0 -27 1 -42.5t4.5 -24.5t11 -12.5t21.5 -5.5l39 -5q5 -4 4 -13.5t-6 -11.5q-36 2 -61 2.5t-51 0.5q-52 0 -94 -3q-5 2 -6 11.5t4 13.5l21 3q14 2 21.5 5.5t11.5 12.5t4.5 25.5t0.5 43.5v430z" />
    <glyph glyph-name="q" unicode="q" horiz-adv-x="497" 
d="M349 231q0 76 -13 100q-11 19 -32.5 32.5t-53.5 13.5q-29 0 -53 -12.5t-41 -34t-27 -51.5t-10 -65q0 -41 11.5 -75.5t32.5 -59.5t50 -39t64 -14q33 0 47 5.5t18 10.5q7 8 7 40v149zM423 -143q0 -27 1 -43t5 -24.5t11.5 -12t20.5 -5.5l29 -5q5 -4 4 -13.5t-6 -11.5
q-29 2 -52.5 2.5t-49.5 0.5q-27 0 -51 -0.5t-53 -2.5q-5 2 -6 11.5t4 13.5l31 3q14 1 21.5 5t11.5 13t4.5 25.5t0.5 43.5v130q0 14 -1.5 19t-7.5 5q-20 -11 -46.5 -18t-55.5 -7q-56 0 -94.5 19.5t-62.5 49t-35 64t-11 63.5q0 54 19.5 96.5t52.5 71t76.5 43.5t91.5 15
q25 0 48.5 -3.5t34.5 -6.5t19.5 -5t15.5 -2q6 0 12.5 4.5t14.5 12.5q7 0 11 -9q-5 -18 -6.5 -45.5t-1.5 -75.5v-421z" />
    <glyph glyph-name="r" unicode="r" horiz-adv-x="332" 
d="M98 287q0 15 -0.5 24t-3 15t-8 11t-15.5 12l-9 6q-3 3 -3 9q0 7 4 9q9 3 22 9t27.5 13t28.5 14t23 13q8 -2 8 -7v-58q0 -8 3 -9q26 22 54 41t56 19q19 0 32 -11t13 -29q0 -25 -15.5 -35.5t-27.5 -10.5q-8 0 -12.5 2t-9.5 5q-24 16 -44 16q-12 0 -21 -6t-15 -14
q-8 -11 -10.5 -31t-2.5 -46v-136q0 -27 1 -43.5t5 -26t12 -13t22 -4.5l36 -3q5 -4 4 -13.5t-6 -11.5q-35 2 -60 2.5t-51 0.5q-53 0 -92 -3q-5 2 -6 11.5t4 13.5l19 3q14 2 21.5 6t11.5 13t4.5 25t0.5 43v175z" />
    <glyph glyph-name="s" unicode="s" horiz-adv-x="323" 
d="M186 408q32 0 56.5 -6t31.5 -12q7 -17 11.5 -39t4.5 -42q-3 -5 -11.5 -6.5t-12.5 3.5q-13 33 -35 53t-53 20q-29 0 -46.5 -17t-17.5 -44q0 -15 7 -27.5t18.5 -22t25 -18t26.5 -15.5q20 -11 38.5 -23.5t32.5 -28.5t22.5 -36t8.5 -47q0 -29 -12 -50t-32 -35.5t-46 -21.5
t-54 -7q-70 0 -107 30q-3 7 -5.5 19t-4 26t-2.5 29t0 27q4 5 11.5 5.5t11.5 -4.5q6 -21 15.5 -39.5t22.5 -32.5t30 -22.5t38 -8.5q27 0 47 16t20 48q0 17 -7 30.5t-18 24.5t-24.5 20t-27.5 17q-44 25 -71.5 53t-27.5 70q0 27 10.5 48.5t29 36t43 22t53.5 7.5z" />
    <glyph glyph-name="t" unicode="t" horiz-adv-x="307" 
d="M180 352q-13 0 -15.5 -4t-2.5 -20v-187q0 -22 2 -42t9.5 -35.5t22 -24.5t39.5 -9q14 0 27 5q7 2 15 8t10 6q6 0 9 -6t1 -11q-14 -16 -40.5 -31t-64.5 -15q-32 0 -52.5 8.5t-32 23t-15.5 34t-4 42.5v229q0 20 -3 24.5t-18 4.5h-28q-5 3 -5.5 9.5t2.5 11.5q22 7 39 15.5
t25 15.5q10 9 22 26.5t20 32.5q4 2 11 1t10 -6v-45q0 -14 2.5 -16.5t15.5 -2.5h111q9 -7 8.5 -22t-7.5 -20h-113z" />
    <glyph glyph-name="u" unicode="u" horiz-adv-x="512" 
d="M159 147q0 -26 4 -47t14 -36t28 -23.5t47 -8.5q20 0 42 8t39 22q10 9 15 22t5 36v164q0 24 -1.5 38t-5.5 21.5t-11.5 11t-18.5 8.5l-13 5q-5 3 -5 11t6 11q15 0 32 1.5t33 4t30 5.5t22 7q8 -2 9 -7q-3 -29 -3 -87v-168q0 -60 5 -84.5t26 -24.5q16 0 39 5q5 -4 5 -15
t-6 -14l-32.5 -6.5t-35 -8t-34 -10t-29.5 -12.5q-9 0 -12 7v41q0 14 -9 14q-11 -7 -26 -16t-32.5 -17t-37.5 -13.5t-42 -5.5q-66 0 -93.5 32t-27.5 93v167q0 24 -0.5 38t-3.5 23t-9 14t-17 10l-12 5q-5 4 -4 12t6 10q35 1 62.5 6.5t44.5 11.5q9 -1 10 -7q-2 -13 -2.5 -31.5
t-0.5 -55.5v-167z" />
    <glyph glyph-name="v" unicode="v" horiz-adv-x="432" 
d="M82 295q-11 28 -22 49t-38 25l-20 3q-5 6 -4 14.5t7 10.5q19 -2 43.5 -2.5t50.5 -0.5q20 0 37.5 0.5t43.5 2.5q5 -3 5.5 -12t-4.5 -13l-12 -2q-23 -4 -26.5 -10.5t4.5 -29.5q17 -52 37.5 -102t37.5 -89q13 -29 16 -32q6 5 19 38q5 13 13 34t16.5 42.5t16 41t11.5 29.5
q11 26 14.5 41.5t3.5 20.5q0 12 -18 15l-23 3q-5 5 -4 13.5t6 11.5q46 -3 75 -3q19 0 34 0.5t36 2.5q5 -3 6 -11.5t-4 -13.5l-15 -2q-13 -2 -22 -8t-16.5 -16.5t-15.5 -26t-19 -36.5q-5 -10 -18 -39t-27.5 -62.5t-27.5 -65t-19 -46.5q-8 -19 -15.5 -37.5t-17.5 -44.5
q-3 -4 -10 -4q-9 0 -13 4q-6 21 -16.5 48.5t-21.5 55.5z" />
    <glyph glyph-name="w" unicode="w" horiz-adv-x="660" 
d="M75 297q-9 21 -16 34t-13.5 20.5t-14 11.5t-16.5 6l-16 4q-4 4 -4 12q0 9 7 12q46 -3 89 -3q46 0 87 3q6 -3 6.5 -11.5t-4.5 -12.5l-23 -4q-22 -3 -22 -14q0 -5 4 -18.5t12 -33.5l62 -153q7 -17 12.5 -29t5.5 -14q4 3 23 48l49 121q10 24 11.5 36t-2.5 22q-7 17 -18 24
t-28 11l-16 4q-5 5 -4 13.5t7 10.5q19 -2 41 -2.5t42 -0.5q44 0 95 3q7 -2 7.5 -11t-4.5 -13l-21 -4q-15 -3 -22.5 -5.5t-10 -7t-0.5 -12.5t7 -21q4 -12 15 -39t23 -56.5t23 -55.5t15 -36q5 -11 8 -18.5t5 -9.5q3 3 14 28q5 11 14 34t19 49.5t19.5 52t15.5 41.5q6 17 8 27.5
t2 15.5q0 10 -18 13l-25 4q-6 4 -5 13t6 11q43 -3 79 -3q14 0 31 0.5t34 2.5q6 -3 7 -11.5t-4 -12.5l-20 -4q-18 -4 -28 -17t-26 -46q-10 -21 -23.5 -52t-26.5 -63.5l-25 -62.5t-19 -49q-11 -27 -19.5 -49t-14.5 -42q-5 -4 -13 -4q-7 0 -11 4q-2 7 -6.5 19.5t-10 27.5
t-12 31.5t-12.5 31.5l-48 115q-3 7 -6.5 15.5t-7 16.5t-6.5 13.5l-3 5.5l-2.5 -5t-6 -12.5t-7 -16t-6.5 -15.5l-52 -125q-14 -32 -24 -58.5t-16 -43.5q-4 -4 -12 -4t-12 4q-5 16 -14.5 41.5t-15.5 41.5z" />
    <glyph glyph-name="x" unicode="x" horiz-adv-x="432" 
d="M87 326q-11 17 -25 28t-35 15l-16 3q-5 4 -4 13.5t6 11.5q29 -2 48.5 -2.5t38.5 -0.5q18 0 37 0.5t48 2.5q5 -3 5.5 -12t-4.5 -13l-15 -3q-20 -4 -21 -10.5t12 -24.5l48 -70q3 -5 7 -10t6 -7q1 1 7.5 10t15 21.5t18 27t17.5 26.5q13 20 11 26t-19 11l-12 3q-5 5 -3.5 14
t7.5 11q17 -2 36 -2.5t37 -0.5q17 0 38 0.5t35 2.5q6 -3 6.5 -12t-4.5 -13l-15 -3q-18 -4 -30 -7t-20 -10q-13 -11 -38.5 -42t-55.5 -72q-9 -12 -9 -18q0 -5 10 -19l93 -131q17 -24 31.5 -34.5t34.5 -12.5l16 -1q5 -5 4 -14t-6 -11q-56 3 -99 3q-28 0 -49.5 -0.5t-45.5 -2.5
q-6 2 -7 11.5t4 13.5l29 3q22 2 24.5 9t-7.5 21l-52 75q-17 25 -22 29q-2 -2 -7.5 -9t-10.5 -15l-42 -66q-15 -24 -15.5 -32.5t18.5 -11.5l17 -3q5 -4 4 -13.5t-6 -11.5q-38 3 -74 3q-19 0 -36 -0.5t-37 -2.5q-6 3 -6.5 12.5t4.5 12.5l23 4q14 2 25 9t25 21q8 8 19.5 23.5
t24 32.5t24.5 33.5t21 27.5q7 8 8 13t-5 13z" />
    <glyph glyph-name="y" unicode="y" horiz-adv-x="438" 
d="M68 -249q-22 0 -33 12t-11 31q0 20 11.5 30t28.5 10h19q22 0 33 18q22 34 36.5 63.5t21.5 47.5q2 6 6 19t4 24q0 15 -3.5 28t-13.5 41l-78 214q-6 18 -11.5 31t-11.5 23t-14.5 15.5t-21.5 8.5l-25 5q-5 4 -4 13.5t7 11.5q48 -3 95 -3q39 0 87 3q6 -2 6.5 -11.5
t-4.5 -13.5l-25 -5q-22 -5 -22 -13q0 -5 3.5 -17.5t8.5 -27.5t10 -29t7 -20l32 -92q2 -6 6.5 -17.5l9 -23t8 -20.5t5.5 -10q2 2 12.5 22.5t24.5 51.5l34 79q17 39 26 65.5t9 34.5q0 5 -5 10t-19 7l-31 5q-5 4 -4.5 13.5t6.5 11.5q48 -3 88 -3q19 0 37 0.5t39 2.5
q6 -3 6.5 -11.5t-4.5 -13.5l-17 -3q-12 -2 -22 -9t-20 -19.5t-20 -31.5t-23 -46l-56 -115q-12 -25 -32.5 -67.5t-43.5 -91.5t-46.5 -99.5t-41.5 -91.5q-13 -29 -30 -38t-34 -9z" />
    <glyph glyph-name="z" unicode="z" horiz-adv-x="377" 
d="M136 0q-41 0 -68.5 -0.5t-36.5 -2.5q-6 3 -6 10q7 9 19 26t25.5 37t27 42t24.5 42l106 180q12 21 8.5 25.5t-17.5 4.5h-69q-23 0 -40.5 -3t-28.5 -12q-13 -10 -21 -25.5t-15 -32.5q-4 -5 -12.5 -3.5t-10.5 7.5q1 10 4 26t8 33t10.5 33t10.5 25q6 4 12 0q1 -6 4.5 -10
t11 -5.5t21 -2t34.5 -0.5h142q20 0 35 0.5t26 2.5q6 -3 5 -10q-31 -43 -74 -114l-121 -203q-16 -27 -13 -33.5t32 -6.5h34q15 0 31 0.5t32 3.5t30 9t25 17q8 9 16 24t16 34q5 3 12.5 1.5t9.5 -7.5q-7 -37 -17 -69t-20 -46q-12 1 -24.5 1.5t-26.5 0.5q-14 1 -29 1h-32h-90z
" />
    <glyph glyph-name="braceleft" unicode="{" horiz-adv-x="320" 
d="M216 375q0 -43 -18 -69t-57 -36v-4q39 -10 57 -36t18 -69q0 -26 -3 -51.5t-6 -51.5t-6.5 -50.5t-3.5 -49.5q0 -15 2.5 -30t11.5 -28t25.5 -23.5t44.5 -14.5q4 -3 4 -9q0 -7 -4 -11q-18 0 -42.5 3t-46.5 16t-37.5 38t-15.5 69q0 26 2.5 53t5.5 54q3 26 5 51t2 48
q0 13 -2 26.5t-10.5 25.5t-26 20.5t-48.5 10.5q-9 11 0 22q31 2 48.5 10.5t26 20.5t10.5 25.5t2 26.5q0 23 -2.5 48t-4.5 52q-2 26 -5 53t-3 53q0 44 15.5 69t37.5 38t46.5 16t42.5 3q4 -4 4 -10t-4 -10q-28 -5 -44.5 -15t-25.5 -23t-11.5 -28t-2.5 -30q0 -24 3 -49t7 -51
t6.5 -51.5t2.5 -51.5z" />
    <glyph glyph-name="bar" unicode="|" horiz-adv-x="239" 
d="M149 -250h-59v1000h59v-1000z" />
    <glyph glyph-name="braceright" unicode="}" horiz-adv-x="320" 
d="M104 375q0 26 2.5 51.5t6.5 51.5t7 51t3 49q0 15 -2.5 30t-11.5 28t-25.5 23t-44.5 15q-4 4 -4 10t4 10q18 0 42.5 -3t46.5 -16t37.5 -38t15.5 -69q0 -26 -3 -53t-5 -53q-2 -27 -4.5 -52t-2.5 -48q0 -13 2 -26.5t10.5 -25.5t26 -20.5t48.5 -10.5q9 -11 0 -22
q-31 -2 -48.5 -10.5t-26 -20.5t-10.5 -25.5t-2 -26.5q0 -23 2 -48t5 -51q3 -27 5.5 -54t2.5 -53q0 -44 -15.5 -69t-37.5 -38t-46.5 -16t-42.5 -3q-4 4 -4 11q0 6 4 9q28 4 44.5 14.5t25.5 23.5t11.5 28t2.5 30q0 25 -3.5 49.5t-6.5 50.5t-6 51.5t-3 51.5q0 43 18 69t57 36v4
q-39 10 -57 36t-18 69z" />
    <glyph glyph-name="asciitilde" unicode="~" 
d="M198 180q-20 0 -32.5 -3t-22 -10.5t-17.5 -20t-17 -31.5q-10 -4 -20 -0.5t-13 14.5q2 6 7 16l11 22t13 23t14 19q13 13 27.5 17t29.5 4h124q19 0 32 3t22.5 10.5t17.5 20t17 31.5q10 4 20 0.5t13 -14.5q-2 -6 -6.5 -16.5t-10.5 -22.5t-13.5 -24t-15.5 -19
q-13 -11 -26 -15t-30 -4h-124z" />
    <glyph glyph-name="Euro" horiz-adv-x="572" 
d="M71 375q9 56 33.5 104.5t63 84t89.5 56t114 20.5q31 0 63.5 -6t58.5 -16q7 -2 11.5 -3t9.5 -2q0 -8 1 -22t2.5 -31t3.5 -34t4 -31q-3 -6 -9.5 -6.5t-11.5 4.5q-4 16 -13 36.5t-26 39t-43 31t-65 12.5q-35 0 -68 -14.5t-60.5 -43.5t-46 -73.5t-24.5 -105.5h329
q2 -5 0.5 -16t-10.5 -16h-322q-1 -9 -1 -27q0 -17 2 -26h311q5 -5 2 -16t-12 -16h-299q13 -119 68.5 -180.5t133.5 -61.5q37 0 64 13t46 31.5t32 39t21 35.5q4 4 10.5 2.5t8.5 -6.5q-8 -36 -19 -68.5t-22 -46.5q-4 -2 -11.5 -4.5t-14.5 -5.5q-12 -4 -42.5 -12t-72.5 -8
q-67 0 -118.5 21t-87.5 57.5t-57 86t-27 107.5h-80q-5 5 0 16t10 16h68q-1 8 -0.5 26t1.5 27h-59q-5 5 0 16t10 16h51z" />
    <glyph glyph-name="Euro" unicode="&#x20ac;" horiz-adv-x="572" 
d="M71 375q9 56 33.5 104.5t63 84t89.5 56t114 20.5q31 0 63.5 -6t58.5 -16q7 -2 11.5 -3t9.5 -2q0 -8 1 -22t2.5 -31t3.5 -34t4 -31q-3 -6 -9.5 -6.5t-11.5 4.5q-4 16 -13 36.5t-26 39t-43 31t-65 12.5q-35 0 -68 -14.5t-60.5 -43.5t-46 -73.5t-24.5 -105.5h329
q2 -5 0.5 -16t-10.5 -16h-322q-1 -9 -1 -27q0 -17 2 -26h311q5 -5 2 -16t-12 -16h-299q13 -119 68.5 -180.5t133.5 -61.5q37 0 64 13t46 31.5t32 39t21 35.5q4 4 10.5 2.5t8.5 -6.5q-8 -36 -19 -68.5t-22 -46.5q-4 -2 -11.5 -4.5t-14.5 -5.5q-12 -4 -42.5 -12t-72.5 -8
q-67 0 -118.5 21t-87.5 57.5t-57 86t-27 107.5h-80q-5 5 0 16t10 16h68q-1 8 -0.5 26t1.5 27h-59q-5 5 0 16t10 16h51z" />
    <glyph glyph-name="Zcaron" horiz-adv-x="641" 
d="M198 836q0 6 3.5 10.5t10.5 4.5l118 -68q11 -6 16 -6q6 0 17 6l120 68q12 -2 12 -15l-127 -122q-21 -19 -43 0zM352 452q38 56 61.5 87.5t35.5 54.5q5 9 8.5 15.5t3.5 11.5q0 4 -8 6t-28 2h-149q-60 0 -95.5 -6.5t-53.5 -26.5q-16 -17 -27 -36t-17 -32q-7 -3 -14.5 -1
t-10.5 8q9 26 20.5 67t20.5 83q8 6 17 0q1 -9 5.5 -14t15 -7.5t29.5 -3t49 -0.5h264q54 0 80.5 0.5t34.5 2.5q6 -2 6 -9q-10 -9 -30 -33t-43 -54.5t-47.5 -64.5t-43.5 -62l-165 -238q-4 -6 -20 -29t-33.5 -49t-31.5 -48.5t-14 -28.5q0 -8 7 -10t21 -4q20 -2 57 -2h91
q24 0 50.5 0.5t51.5 3t47 7t36 12.5q22 12 39.5 37.5t30.5 54.5q7 2 15 1t10 -8q-3 -17 -8.5 -38t-11.5 -41t-12.5 -37t-12.5 -26q-20 1 -41 1.5t-44 0.5q-23 1 -47 1h-50h-257q-40 0 -67.5 -1t-44.5 -2q-5 2 -5 12q8 7 21.5 23t29 35.5t31 40t27.5 37.5z" />
    <glyph glyph-name="Zcaron" unicode="&#x17d;" horiz-adv-x="641" 
d="M198 836q0 6 3.5 10.5t10.5 4.5l118 -68q11 -6 16 -6q6 0 17 6l120 68q12 -2 12 -15l-127 -122q-21 -19 -43 0zM352 452q38 56 61.5 87.5t35.5 54.5q5 9 8.5 15.5t3.5 11.5q0 4 -8 6t-28 2h-149q-60 0 -95.5 -6.5t-53.5 -26.5q-16 -17 -27 -36t-17 -32q-7 -3 -14.5 -1
t-10.5 8q9 26 20.5 67t20.5 83q8 6 17 0q1 -9 5.5 -14t15 -7.5t29.5 -3t49 -0.5h264q54 0 80.5 0.5t34.5 2.5q6 -2 6 -9q-10 -9 -30 -33t-43 -54.5t-47.5 -64.5t-43.5 -62l-165 -238q-4 -6 -20 -29t-33.5 -49t-31.5 -48.5t-14 -28.5q0 -8 7 -10t21 -4q20 -2 57 -2h91
q24 0 50.5 0.5t51.5 3t47 7t36 12.5q22 12 39.5 37.5t30.5 54.5q7 2 15 1t10 -8q-3 -17 -8.5 -38t-11.5 -41t-12.5 -37t-12.5 -26q-20 1 -41 1.5t-44 0.5q-23 1 -47 1h-50h-257q-40 0 -67.5 -1t-44.5 -2q-5 2 -5 12q8 7 21.5 23t29 35.5t31 40t27.5 37.5z" />
    <glyph glyph-name="zcaron" horiz-adv-x="377" 
d="M170 558q11 -13 14 -13q4 0 15 13l90 106q13 0 16 -11l-102 -181q-8 -14 -19 -14q-10 0 -18 14l-102 181q3 11 16 11zM136 0q-41 0 -68.5 -0.5t-36.5 -2.5q-6 3 -6 10q7 9 19 26t25.5 37t27 42t24.5 42l106 180q12 21 8.5 25.5t-17.5 4.5h-69q-23 0 -40.5 -3t-28.5 -12
q-13 -10 -21 -25.5t-15 -32.5q-4 -5 -12.5 -3.5t-10.5 7.5q1 10 4 26t8 33t10.5 33t10.5 25q6 4 12 0q1 -6 4.5 -10t11 -5.5t21 -2t34.5 -0.5h142q20 0 35 0.5t26 2.5q6 -3 5 -10q-31 -43 -74 -114l-121 -203q-16 -27 -13 -33.5t32 -6.5h34q15 0 31 0.5t32 3.5t30 9t25 17
q8 9 16 24t16 34q5 3 12.5 1.5t9.5 -7.5q-7 -37 -17 -69t-20 -46q-12 1 -24.5 1.5t-26.5 0.5q-14 1 -29 1h-32h-90z" />
    <glyph glyph-name="zcaron" unicode="&#x17e;" horiz-adv-x="377" 
d="M170 558q11 -13 14 -13q4 0 15 13l90 106q13 0 16 -11l-102 -181q-8 -14 -19 -14q-10 0 -18 14l-102 181q3 11 16 11zM136 0q-41 0 -68.5 -0.5t-36.5 -2.5q-6 3 -6 10q7 9 19 26t25.5 37t27 42t24.5 42l106 180q12 21 8.5 25.5t-17.5 4.5h-69q-23 0 -40.5 -3t-28.5 -12
q-13 -10 -21 -25.5t-15 -32.5q-4 -5 -12.5 -3.5t-10.5 7.5q1 10 4 26t8 33t10.5 33t10.5 25q6 4 12 0q1 -6 4.5 -10t11 -5.5t21 -2t34.5 -0.5h142q20 0 35 0.5t26 2.5q6 -3 5 -10q-31 -43 -74 -114l-121 -203q-16 -27 -13 -33.5t32 -6.5h34q15 0 31 0.5t32 3.5t30 9t25 17
q8 9 16 24t16 34q5 3 12.5 1.5t9.5 -7.5q-7 -37 -17 -69t-20 -46q-12 1 -24.5 1.5t-26.5 0.5q-14 1 -29 1h-32h-90z" />
    <glyph glyph-name="nonbreakingspace" unicode="&#xa0;" horiz-adv-x="250" 
 />
    <glyph glyph-name="exclamdown" unicode="&#xa1;" horiz-adv-x="220" 
d="M110 280q-22 0 -39 14.5t-17 40.5t16 42.5t40 16.5q26 0 41 -17.5t15 -41.5t-15 -39.5t-41 -15.5zM110 -266q-24 0 -36.5 5t-12.5 24q0 11 1.5 30t5.5 59l29 323q5 5 13 5q9 0 13 -5l29 -323q4 -40 5.5 -59t1.5 -30q0 -19 -12.5 -24t-36.5 -5z" />
    <glyph glyph-name="cent" unicode="&#xa2;" 
d="M282 493q-31 0 -58 -10t-47 -30.5t-31.5 -49.5t-11.5 -66q0 -24 6.5 -49.5t19.5 -48.5t33.5 -42t49.5 -31zM274 157q9 -2 19 -3t21 -1q22 0 39.5 5t31 13t24.5 18t20 20q7 2 12 -2.5t4 -9.5q-31 -51 -75.5 -71t-101.5 -20l-12 -102q-7 -4 -17 -4t-16 4l13 105
q-36 4 -67.5 19.5t-54.5 40.5t-36 59t-13 77q0 50 17.5 89.5t47.5 67.5t70 44t86 20l10 86q7 4 16 4q10 0 17 -4l-10 -84q20 0 40 -3t40 -8q22 -19 22 -51q0 -15 -4 -25t-8 -10q-6 0 -14 9q-12 14 -32.5 28.5t-48.5 21.5z" />
    <glyph glyph-name="sterling" unicode="&#xa3;" 
d="M421 313q7 -5 7 -17q0 -11 -7 -15h-121q-13 0 -17 -2t-4 -12q0 -63 -29.5 -108t-80.5 -79v-4q8 1 21.5 2t24.5 -1q17 -2 40 -11t48 -20t49 -18.5t41 -7.5t26.5 7t13 17.5t3.5 22.5q0 13 -2 25q-3 18 4.5 26.5t19.5 8.5q16 0 26 -13.5t10 -31.5q0 -19 -12 -37.5t-33 -33.5
t-48 -24t-57 -9q-32 0 -62.5 10t-57.5 23t-49.5 22.5t-38.5 9.5q-15 0 -25 -9.5t-10 -20.5q0 -5 -6.5 -10t-15.5 -9t-18 -6t-13 -2q-9 0 -16 4.5t-7 14.5q0 8 4.5 16.5t15 17.5t28.5 17.5t46 17.5q27 12 43.5 34.5t25 49t11.5 55t3 54.5q0 8 -2.5 11t-13.5 3h-92q-6 5 -6 16
t6 16h91q11 0 13 2t1 13q-1 8 -2.5 30t-1.5 68t13.5 85.5t38 68t58.5 44.5t75 16q31 0 51 -6t28 -12q7 -5 9.5 -14.5t2.5 -20.5q0 -9 -9.5 -22t-19.5 -13q-6 0 -14 9q-19 22 -38.5 32.5t-48.5 10.5q-23 0 -45.5 -23.5t-25.5 -74.5q-2 -25 -1.5 -46.5t2 -42.5t4 -42.5
t4.5 -46.5q1 -10 4 -12.5t16 -2.5h122z" />
    <glyph glyph-name="currency" unicode="&#xa4;" 
d="M251 539q70 0 125 -40l41 51q17 -5 32 -18.5t17 -29.5l-45 -45q22 -26 34 -60t12 -72t-12 -72t-34 -60l45 -45q-2 -16 -17 -29.5t-32 -18.5l-41 51q-55 -40 -125 -40t-125 40l-41 -51q-17 5 -32 18.5t-17 29.5l45 45q-22 26 -34 60t-12 72t12 72t34 60l-45 45
q2 16 17 29.5t32 18.5l41 -51q55 40 125 40zM251 493q-32 0 -61 -13t-50.5 -36t-34.5 -53.5t-13 -65.5q0 -36 13 -67t35 -53.5t51 -35t60 -12.5t60 13t51 35.5t35 53t13 66.5q0 35 -13 65.5t-35 53.5t-51 36t-60 13z" />
    <glyph glyph-name="yen" unicode="&#xa5;" 
d="M298 209v-86q0 -29 1 -47.5t5 -29.5t13 -16t24 -6l37 -4q5 -4 4 -12.5t-6 -10.5q-27 2 -58.5 2.5t-57.5 0.5q-23 0 -54 -0.5t-58 -2.5q-5 2 -6 10.5t4 12.5l37 4q16 2 24.5 7t12.5 15.5t5 29t1 47.5v86h-152q-5 5 -5 16t5 16h150q0 43 -7 61l-9 20h-134q-5 5 -5 16t5 16
h119l-88 171q-11 21 -19 35t-16 23t-17.5 14t-24.5 8l-21 5q-4 4 -4 11t7 10q19 -2 47.5 -2.5t60.5 -0.5q33 0 54.5 0.5t40.5 2.5q5 -2 5.5 -9.5t-3.5 -11.5l-38 -7q-20 -4 -20 -15q0 -3 4 -12.5t9 -21.5t10.5 -23t7.5 -16l55 -118q11 -23 20.5 -42t12.5 -19q4 0 9.5 11.5
l16.5 34.5l45 90q9 17 17.5 36t16 35t12 27.5t4.5 14.5q0 14 -23 18l-38 7q-5 4 -4 11.5t7 9.5q45 -3 94 -3q37 0 75 3q5 -3 5.5 -9.5t-3.5 -11.5l-24 -5q-23 -5 -42.5 -33t-39.5 -66l-79 -152h124q5 -5 5 -16t-5 -16h-139l-7 -26q-2 -8 -2.5 -21.5t-0.5 -33.5h149
q5 -5 5 -16t-5 -16h-151z" />
    <glyph glyph-name="brokenbar" unicode="&#xa6;" horiz-adv-x="239" 
d="M149 -175h-59v350h59v-350zM149 325h-59v350h59v-350z" />
    <glyph glyph-name="section" unicode="&#xa7;" horiz-adv-x="506" 
d="M225 224q37 -38 62.5 -67t41.5 -55t23 -51.5t7 -55.5q30 27 39 56t9 60q0 34 -8 63.5t-23.5 56.5t-38.5 53t-52 54q-40 38 -66 67t-41 54t-21 50t-6 56q-25 -21 -38.5 -45t-13.5 -62q0 -17 3 -38.5t15 -50t37.5 -64.5t70.5 -81zM185 -124q-35 0 -57.5 14t-22.5 36
q0 14 9 25t26 11q9 0 14.5 -2t10.5 -7q27 -23 47 -29t38 -6q11 0 23.5 4t22.5 12t16.5 19.5t6.5 26.5q0 22 -14 47t-35 50t-45 49.5t-45 45.5q-27 26 -50.5 52.5t-41 55.5t-28 62t-10.5 72q0 45 21.5 91.5t58 84.5t84.5 62t102 24q42 0 59.5 -16t17.5 -30q0 -11 -9.5 -21.5
t-23.5 -10.5q-11 0 -16.5 1.5t-11.5 6.5q-23 16 -44.5 22.5t-37.5 6.5q-24 0 -41.5 -16t-17.5 -44q0 -19 7 -36.5t23.5 -39t44 -48t67.5 -63.5q63 -58 93 -112.5t30 -120.5q0 -46 -20 -95.5t-56 -90t-86 -67t-109 -26.5z" />
    <glyph glyph-name="dieresis" unicode="&#xa8;" horiz-adv-x="360" 
d="M275 483q-20 0 -34 11.5t-14 34.5q-1 20 13 34t35 14q20 0 32.5 -14t12.5 -31q0 -22 -12.5 -35.5t-32.5 -13.5zM87 483q-20 0 -33.5 11.5t-13.5 34.5q-2 20 12 34t35 14q20 0 33 -14t13 -31q0 -22 -13 -35.5t-33 -13.5z" />
    <glyph glyph-name="copyright" unicode="&#xa9;" horiz-adv-x="790" 
d="M102 331q0 -65 22.5 -121t62 -97.5t93 -65.5t115.5 -24t115.5 24t93 65.5t62 97.5t22.5 121q0 64 -22.5 120t-62 97.5t-93 65t-115.5 23.5t-115.5 -23.5t-93 -65t-62 -97.5t-22.5 -120zM395 -16q-75 0 -139.5 27t-111 74t-73 110t-26.5 135t26.5 135t73 110t111 74
t139.5 27t139.5 -27t111 -74t73 -110t26.5 -135t-26.5 -135t-73 -110t-111 -74t-139.5 -27zM280 334q0 -79 41 -127t108 -48q44 0 74 26t49 69q5 4 11 3t9 -6q-1 -10 -3.5 -23t-6.5 -26.5t-8.5 -26t-8.5 -20.5q-7 -2 -20.5 -6t-30 -8t-35 -6.5t-36.5 -2.5q-56 0 -97 17
t-68 44.5t-40 63t-13 71.5q0 45 17.5 82t47.5 63.5t71 41t88 14.5q21 0 40 -2.5t35.5 -5.5t28 -5.5t17.5 -2.5q4 -23 6 -44t6 -49q-3 -5 -10 -6t-11 3q-27 85 -118 85q-36 0 -62.5 -13.5t-44.5 -36t-27 -53.5t-9 -65z" />
    <glyph glyph-name="ordfeminine" unicode="&#xaa;" horiz-adv-x="332" 
d="M198 368q2 14 -6.5 13.5t-28.5 -7.5q-10 -3 -21 -7t-20.5 -10t-16 -15.5t-6.5 -23.5q0 -12 9.5 -27.5t35.5 -15.5q17 0 28.5 6t15.5 10q8 10 8 25zM201 440q0 13 -1.5 26t-7 22.5t-16 15.5t-28.5 6q-16 0 -29 -7t-16 -24q-1 -5 -2.5 -13t-6.5 -13q-8 -5 -23.5 -11
t-21.5 -6q-14 0 -14 13q0 8 6.5 20t23.5 26q20 16 51.5 30.5t63.5 14.5q25 0 41.5 -6.5t25.5 -18t12.5 -27t2.5 -34.5l-5 -122q-1 -24 5.5 -40t28.5 -16q14 0 29 10q6 0 8.5 -4.5t-0.5 -9.5q-16 -17 -35.5 -24.5t-36.5 -7.5q-11 0 -22.5 4.5t-23.5 15.5q-9 9 -15 9t-16 -6
l-12 -6t-18 -8t-20.5 -6.5t-19.5 -2.5q-40 0 -58 21t-18 49q0 20 11.5 34t27.5 21q35 14 63 23t44 15q14 5 18 10.5t4 14.5v12z" />
    <glyph glyph-name="guillemotleft" unicode="&#xab;" horiz-adv-x="378" 
d="M263 218q-5 -12 0 -24l70 -142q-4 -10 -17 -13q-29 38 -58 75.5t-61 75.5q-13 16 0 31q32 38 61 75t58 75q13 -2 17 -13zM118 218q-5 -12 0 -24l70 -142q-4 -10 -17 -13q-29 38 -58 75.5t-61 75.5q-13 16 0 31q32 38 61 75t58 75q13 -2 17 -13z" />
    <glyph glyph-name="logicalnot" unicode="&#xac;" 
d="M408 256h-375v49h434v-255h-59v206z" />
    <glyph glyph-name="hyphen" unicode="&#xad;" horiz-adv-x="320" 
d="M273 247q15 -10 15 -32q0 -15 -8 -25l-233 -22q-8 7 -11.5 15.5t-3.5 16.5q0 15 8 25z" />
    <glyph glyph-name="hyphen" unicode="&#x2010;" horiz-adv-x="320" 
d="M273 247q15 -10 15 -32q0 -15 -8 -25l-233 -22q-8 7 -11.5 15.5t-3.5 16.5q0 15 8 25z" />
    <glyph glyph-name="registered" unicode="&#xae;" horiz-adv-x="790" 
d="M102 331q0 -65 22.5 -121t62 -97.5t93 -65.5t115.5 -24t115.5 24t93 65.5t62 97.5t22.5 121q0 64 -22.5 120t-62 97.5t-93 65t-115.5 23.5t-115.5 -23.5t-93 -65t-62 -97.5t-22.5 -120zM395 -16q-75 0 -139.5 27t-111 74t-73 110t-26.5 135t26.5 135t73 110t111 74
t139.5 27t139.5 -27t111 -74t73 -110t26.5 -135t-26.5 -135t-73 -110t-111 -74t-139.5 -27zM341 353q0 -15 6.5 -18t32.5 -3q42 0 61 23.5t19 61.5q0 30 -21 55.5t-62 25.5q-27 0 -31.5 -4.5t-4.5 -18.5v-122zM283 425q0 23 -0.5 37.5t-4 22.5t-10.5 11t-20 5l-15 2
q-4 4 -3.5 9.5t5.5 8.5q41 2 74 3t77 1q22 0 46.5 -3.5t44.5 -14t33 -30.5t13 -53q0 -19 -7 -34.5t-18 -27.5t-24 -20.5t-24 -12.5q-2 -8 4 -15q34 -57 58.5 -93.5t50.5 -59.5q11 -10 20 -12t15 -2q6 -6 0 -12q-4 -1 -12 -2t-18 -1q-20 0 -35 3.5t-28 12t-25.5 22.5
t-27.5 35q-5 7 -11.5 18.5t-14 23.5t-15 24.5t-14.5 22.5q-4 6 -12 8.5t-19 2.5q-17 0 -21 -2.5t-4 -10.5v-56q0 -24 1 -39t4.5 -23.5t10.5 -12t18 -4.5l20 -2q5 -3 4.5 -10t-5.5 -9q-20 1 -38 1.5t-41 0.5t-42 -0.5t-38 -1.5q-5 2 -5.5 9t3.5 10l15 2q13 2 20 5.5t10.5 12
t4 23t0.5 38.5v189z" />
    <glyph glyph-name="macron" unicode="&#xaf;" horiz-adv-x="360" 
d="M60 512q-8 10 -8 25q0 16 8 26h240q8 -10 8 -26q0 -15 -8 -25h-240z" />
    <glyph glyph-name="degree" unicode="&#xb0;" horiz-adv-x="348" 
d="M174 605q-33 0 -55.5 -25.5t-22.5 -68.5t22.5 -68.5t55.5 -25.5t55.5 25.5t22.5 68.5t-22.5 68.5t-55.5 25.5zM174 640q27 0 51.5 -9t43 -26t29 -41t10.5 -53q0 -31 -10.5 -55t-29 -40.5t-43 -25t-51.5 -8.5t-51.5 8.5t-43 25t-29 40.5t-10.5 55q0 29 10.5 53t29 41
t43 26t51.5 9z" />
    <glyph glyph-name="plusminus" unicode="&#xb1;" 
d="M221 84v155h-163v49h163v148h59v-148h163v-49h-163v-155h-59zM443 0h-385v49h385v-49z" />
    <glyph glyph-name="twosuperior" unicode="&#xb2;" horiz-adv-x="360" 
d="M219 295q18 0 32 1t25 4.5t20.5 11t17.5 19.5q13 5 19 -7q-12 -26 -20.5 -48t-18.5 -31q-9 0 -23.5 0.5t-30.5 1t-32 0.5h-27h-72q-29 0 -46.5 -0.5t-28.5 -1.5q-5 5 -5 7q0 6 2 9q24 15 46 33.5t58 54.5q16 16 32 35t29.5 40t22 44t8.5 47q0 39 -20.5 61.5t-54.5 22.5
q-28 0 -50.5 -17t-39.5 -46q-6 -4 -12.5 -0.5t-6.5 9.5q20 47 56 71t83 24q55 0 86.5 -29t31.5 -74q0 -16 -3.5 -31.5t-12.5 -32t-23.5 -34.5t-36.5 -40l-56 -56q-19 -19 -26.5 -27t-7.5 -13t4.5 -6.5t9.5 -1.5h71z" />
    <glyph glyph-name="threesuperior" unicode="&#xb3;" horiz-adv-x="360" 
d="M254 359q0 16 -4.5 32t-14.5 29t-26 20.5t-38 7.5q-24 0 -42 -9t-30 -20q-8 4 -12 10.5t-1 16.5q9 4 23 10t29 12.5t29.5 14t24.5 14.5q12 8 21.5 22t9.5 34q0 26 -16 39.5t-37 13.5q-24 0 -46 -15t-39 -43q-13 -1 -17 11q19 38 53 59.5t76 21.5q44 0 70 -21.5t26 -49.5
q0 -22 -14.5 -41t-58.5 -39q-4 -5 -1 -7.5t9 -2.5q19 0 37 -6.5t31.5 -18.5t21.5 -30t8 -40q0 -34 -17 -65.5t-52 -57.5q-40 -29 -79.5 -41t-64.5 -12q-12 0 -25 2t-23 6.5t-16.5 12t-6.5 18.5q0 14 9.5 23t23.5 9q11 0 19.5 -9t13.5 -17q11 -18 32 -18q15 0 34.5 8
t37.5 23.5t30 39t12 53.5z" />
    <glyph glyph-name="acute" unicode="&#xb4;" horiz-adv-x="360" 
d="M139 442q-14 -2 -16 12l91 169q5 10 11 16.5t11 7.5q14 2 31 -13q18 -15 18 -27q0 -13 -17 -30z" />
    <glyph glyph-name="mu" unicode="&#xb5;" horiz-adv-x="512" 
d="M159 147q0 -26 4 -47t14 -36t28 -23.5t47 -8.5q20 0 42 8t39 22q10 9 15 20.5t5 32.5v169q0 24 -1.5 38t-5.5 21.5t-11.5 11t-18.5 8.5l-13 5q-5 3 -5 11t6 11q15 0 32 1.5t33 4t30 5.5t22 7q8 -2 9 -7q-3 -29 -3 -87v-168q0 -60 5 -84.5t26 -24.5q16 0 39 5q5 -4 5 -15
t-6 -14l-32.5 -6.5t-35 -8t-34 -10t-29.5 -12.5q-9 0 -12 7v41q0 14 -9 14q-11 -7 -26 -16t-33 -17t-40 -13.5t-47 -5.5q-19 0 -34 5.5t-22 8.5q-5 1 -7.5 -2t-2.5 -14v-57q0 -21 5.5 -42.5t11.5 -39.5t11.5 -31.5t5.5 -19.5q0 -8 -6.5 -19t-16 -21t-20 -16.5t-18.5 -6.5
q-20 0 -20 31v516q0 24 -0.5 38t-3.5 23t-9 14t-17 10l-12 5q-5 4 -4 12t6 10q35 1 62.5 6.5t44.5 11.5q9 -1 10 -7q-2 -13 -2.5 -31.5t-0.5 -55.5v-167z" />
    <glyph glyph-name="paragraph" unicode="&#xb6;" 
d="M366 97q0 -33 -3.5 -67t-15.5 -61.5t-35.5 -45.5t-63.5 -18q-15 0 -30.5 4t-28 12.5t-21 22.5t-8.5 34q0 23 10.5 35.5t18.5 16.5q16 0 32 -9.5t19 -20.5q-4 -5 -9 -12.5t-5 -21.5t9.5 -22.5t23.5 -8.5q8 0 17.5 5t18 19t14 39t5.5 64v151q0 20 -4.5 26t-12.5 6
q-49 0 -92 14.5t-75.5 40.5t-51.5 63.5t-19 82.5q0 53 19.5 93t55.5 67t87.5 40.5t115.5 13.5q44 0 76 -1.5t45 -3.5q5 -3 5 -11q0 -7 -5 -10l-39 -7q-19 -3 -29.5 -7t-16 -10.5t-6.5 -18t-1 -30.5v-464z" />
    <glyph glyph-name="periodcentered" unicode="&#xb7;" horiz-adv-x="250" 
d="M125 148q-22 0 -39 14.5t-17 40.5t16 42.5t40 16.5q26 0 41 -17.5t15 -41.5t-15 -39.5t-41 -15.5z" />
    <glyph glyph-name="periodcentered" unicode="&#x22c5;" horiz-adv-x="250" 
d="M125 148q-22 0 -39 14.5t-17 40.5t16 42.5t40 16.5q26 0 41 -17.5t15 -41.5t-15 -39.5t-41 -15.5z" />
    <glyph glyph-name="periodcentered" unicode="&#x2219;" horiz-adv-x="250" 
d="M125 148q-22 0 -39 14.5t-17 40.5t16 42.5t40 16.5q26 0 41 -17.5t15 -41.5t-15 -39.5t-41 -15.5z" />
    <glyph glyph-name="cedilla" unicode="&#xb8;" horiz-adv-x="360" 
d="M234 0l-28 -38q-4 -6 -2.5 -12t11.5 -11q20 -14 33 -31.5t13 -40.5q0 -19 -9 -35t-23.5 -28t-33.5 -18.5t-38 -6.5q-28 0 -43 10t-15 25q0 8 6.5 17t18.5 9q7 0 14.5 -4.5t14 -10t13 -10t11.5 -4.5q9 0 18 7t9 24q0 20 -18.5 38t-44.5 29v6l57 85h36z" />
    <glyph glyph-name="onesuperior" unicode="&#xb9;" horiz-adv-x="360" 
d="M153 526q0 28 -4.5 41.5t-26.5 15.5l-31 3q-5 3 -5 9q0 7 4 10q42 7 72 17t50 18q7 0 7 -5q-2 -16 -2 -36v-37v-229q0 -19 1 -30.5t5 -18.5t12.5 -10.5t23.5 -5.5l17 -2q4 -3 4 -11t-5 -10q-23 1 -46 1.5t-46 0.5q-21 0 -44 -0.5t-44 -1.5q-5 2 -5 10t4 11l17 2
q15 2 23.5 5.5t12.5 10.5t5 18.5t1 30.5v193z" />
    <glyph glyph-name="ordmasculine" unicode="&#xba;" horiz-adv-x="387" 
d="M189 514q-35 0 -59 -32.5t-24 -85.5q0 -23 5.5 -46.5t16.5 -42t28.5 -30t41.5 -11.5t39.5 11t25.5 28t14 37.5t4 39.5q0 20 -5 43.5t-16 43t-28.5 32.5t-42.5 13zM197 540q34 0 63 -11t50 -30.5t33 -46.5t12 -59q0 -33 -11.5 -61t-33 -48.5t-52 -32t-67.5 -11.5
q-35 0 -64 10.5t-50 30t-33 46.5t-12 59q0 33 12.5 61.5t34.5 49t52.5 32t65.5 11.5z" />
    <glyph glyph-name="guillemotright" unicode="&#xbb;" horiz-adv-x="378" 
d="M190 358q4 11 17 13q29 -38 58 -75t61 -75q13 -15 0 -31q-32 -38 -61 -75.5t-58 -75.5q-13 3 -17 13l70 142q5 12 0 24zM45 358q4 11 17 13q29 -38 58 -75t61 -75q13 -15 0 -31q-32 -38 -61 -75.5t-58 -75.5q-13 3 -17 13l70 142q5 12 0 24z" />
    <glyph glyph-name="onequarter" unicode="&#xbc;" horiz-adv-x="780" 
d="M565 145q12 0 15 2.5t3 13.5v109q0 8 6 12q7 4 21 7.5t25 3.5q8 0 9.5 -5t1.5 -14v-115q0 -9 2.5 -11.5t12.5 -2.5h37q6 -4 6 -14t-6 -15h-33q-14 0 -16.5 -2.5t-2.5 -13.5v-14q0 -21 0.5 -33t4 -19t11.5 -9.5t23 -3.5l18 -2q3 -5 3 -12t-5 -9q-16 1 -35 1.5t-51 0.5
q-28 0 -53.5 -0.5t-35.5 -1.5q-5 2 -5.5 9t3.5 12l18 2q15 2 23.5 4.5t12.5 9.5t4.5 19t0.5 32v12q0 11 -2.5 14.5t-16.5 3.5h-155q-9 0 -9 10q0 8 9 20l213 274q5 7 9 9.5t12 2.5q9 0 15.5 -1t6.5 -4q0 -2 -2 -6l-206 -264q-8 -9 -2 -10.5t20 -1.5h90zM110 526
q0 28 -4.5 41.5t-26.5 15.5l-31 3q-5 3 -5 9q0 7 4 10q42 7 72 17t50 18q7 0 7 -5q-2 -16 -2 -36v-37v-229q0 -19 1 -30.5t5 -18.5t12.5 -10.5t23.5 -5.5l17 -2q4 -3 4 -11t-5 -10q-23 1 -46 1.5t-46 0.5q-21 0 -44 -0.5t-44 -1.5q-5 2 -5 10t4 11l17 2q15 2 23.5 5.5
t12.5 10.5t5 18.5t1 30.5v193zM138 -14q111 168 219.5 334t216.5 334q9 0 17.5 -5.5t13.5 -17.5q-112 -169 -221.5 -335.5t-218.5 -335.5q-13 0 -19.5 7.5t-7.5 18.5z" />
    <glyph glyph-name="onehalf" unicode="&#xbd;" horiz-adv-x="780" 
d="M634 48q18 0 32 1t25 4.5t20.5 11t17.5 19.5q13 5 19 -7q-12 -26 -20.5 -48t-18.5 -31q-9 0 -23.5 0.5t-30.5 1t-32 0.5h-27h-72q-29 0 -46.5 -0.5t-28.5 -1.5l-3.5 3.5t-1.5 3.5q0 6 2 9q24 15 46 33.5t58 54.5q16 16 32 35t29.5 40t22 44t8.5 47q0 39 -20.5 61.5
t-54.5 22.5q-28 0 -50.5 -17t-39.5 -46q-6 -4 -12.5 -0.5t-6.5 9.5q20 47 56 71t83 24q55 0 86.5 -29t31.5 -74q0 -16 -3.5 -31.5t-12.5 -32t-23.5 -34.5t-36.5 -40l-56 -56q-19 -19 -26.5 -27t-7.5 -13t4.5 -6.5t9.5 -1.5h71zM117 526q0 28 -4.5 41.5t-26.5 15.5l-31 3
q-5 3 -5 9q0 7 4 10q42 7 72 17t50 18q7 0 7 -5q-2 -16 -2 -36v-37v-229q0 -19 1 -30.5t5 -18.5t12.5 -10.5t23.5 -5.5l17 -2q4 -3 4 -11t-5 -10q-23 1 -46 1.5t-46 0.5q-21 0 -44 -0.5t-44 -1.5q-5 2 -5 10t4 11l17 2q15 2 23.5 5.5t12.5 10.5t5 18.5t1 30.5v193zM130 -14
q111 168 219.5 334t216.5 334q9 0 17.5 -5.5t13.5 -17.5q-112 -169 -221.5 -335.5t-218.5 -335.5q-13 0 -19.5 7.5t-7.5 18.5z" />
    <glyph glyph-name="threequarters" unicode="&#xbe;" horiz-adv-x="780" 
d="M585 145q12 0 15 2.5t3 13.5v109q0 8 6 12q7 4 21 7.5t25 3.5q8 0 9.5 -5t1.5 -14v-115q0 -9 2.5 -11.5t12.5 -2.5h37q6 -4 6 -14t-6 -15h-33q-14 0 -16.5 -2.5t-2.5 -13.5v-14q0 -21 0.5 -33t4 -19t11.5 -9.5t23 -3.5l18 -2q3 -5 3 -12t-5 -9q-16 1 -35 1.5t-51 0.5
q-28 0 -53.5 -0.5t-35.5 -1.5q-5 2 -5.5 9t3.5 12l18 2q15 2 23.5 4.5t12.5 9.5t4.5 19t0.5 32v12q0 11 -2.5 14.5t-16.5 3.5h-155q-9 0 -9 10q0 8 9 20l213 274q5 7 9 9.5t12 2.5q9 0 15.5 -1t6.5 -4q0 -2 -2 -6l-206 -264q-8 -9 -2 -10.5t20 -1.5h90zM249 359
q0 16 -4.5 32t-14.5 29t-26 20.5t-38 7.5q-24 0 -42 -9t-30 -20q-8 4 -12 10.5t-1 16.5q9 4 23 10t29 12.5t29.5 14t24.5 14.5q12 8 21.5 22t9.5 34q0 26 -16 39.5t-37 13.5q-24 0 -46 -15t-39 -43q-13 -1 -17 11q19 38 53 59.5t76 21.5q44 0 70 -21.5t26 -49.5
q0 -22 -14.5 -41t-58.5 -39q-4 -5 -1 -7.5t9 -2.5q19 0 37 -6.5t31.5 -18.5t21.5 -30t8 -40q0 -34 -17 -65.5t-52 -57.5q-40 -29 -79.5 -41t-64.5 -12q-12 0 -25 2t-23 6.5t-16.5 12t-6.5 18.5q0 14 9.5 23t23.5 9q11 0 19.5 -9t13.5 -17q11 -18 32 -18q15 0 34.5 8
t37.5 23.5t30 39t12 53.5zM173 -14q111 168 219.5 334t216.5 334q9 0 17.5 -5.5t13.5 -17.5q-112 -169 -221.5 -335.5t-218.5 -335.5q-13 0 -19.5 7.5t-7.5 18.5z" />
    <glyph glyph-name="questiondown" unicode="&#xbf;" horiz-adv-x="321" 
d="M196 280q-22 0 -39 14.5t-17 40.5t16 42.5t40 16.5q26 0 41 -17.5t15 -41.5t-15 -39.5t-41 -15.5zM217 -266q-30 0 -60.5 17t-55.5 45.5t-40.5 65t-15.5 76.5q0 42 13.5 63t24.5 27l79 42q35 18 35 44q0 12 -3 27.5t-7 30.5q3 6 9.5 7.5t11.5 -2.5q5 -9 11.5 -21
t12 -25.5t9 -27.5t3.5 -25q0 -31 -15.5 -45.5t-38.5 -26.5l-49 -26q-30 -16 -42.5 -34.5t-12.5 -38.5q0 -16 5 -32t17 -29q21 -20 49 -26t67 -6q7 0 20 -11t13 -31q0 -15 -10 -26.5t-30 -11.5z" />
    <glyph glyph-name="Agrave" unicode="&#xc0;" horiz-adv-x="623" 
d="M160 770q-11 5 -17 8.5t-9 8.5q-6 11 8 31q5 10 12.5 16.5t12.5 6.5q11 0 27 -13l156 -119q2 -7 -1 -11.5t-8 -6.5zM209 321q-6 -17 -3 -20.5t24 -3.5h123q22 0 25.5 5.5t-3.5 25.5l-54 163l-12 36t-11 27h-2q-2 -4 -9 -20t-15 -39zM407 232q-5 17 -11.5 21t-29.5 4h-151
q-19 0 -26 -4t-12 -20l-35 -105q-22 -66 -22 -83q0 -9 5.5 -13.5t23.5 -6.5l33 -3q5 -4 5 -13t-7 -12q-20 2 -45 2q-24 0 -59 1q-25 0 -50.5 -1t-45.5 -2q-5 3 -6 12t4 13l33 3q18 2 33.5 12t26.5 37q13 34 34.5 86.5t53.5 136.5l102 270q11 27 15 43t2 28q18 5 31 16.5
t21 21.5q5 0 9 -2t6 -7q10 -33 21.5 -67t22.5 -67l137 -402q11 -32 19.5 -52t17.5 -31.5t20.5 -16t27.5 -6.5l27 -3q5 -4 4.5 -13t-4.5 -12q-31 2 -59 2.5t-62 0.5q-36 0 -64.5 -1t-50.5 -2q-6 3 -6.5 12t4.5 13l29 3q16 2 25.5 6t9.5 12t-3.5 21.5t-9.5 31.5z" />
    <glyph glyph-name="Aacute" unicode="&#xc1;" horiz-adv-x="623" 
d="M296 691q-6 2 -9 6.5t-1 11.5l156 119q16 13 27 13q5 0 12.5 -6.5t12.5 -16.5q14 -20 8 -31q-3 -5 -9 -8.5t-17 -8.5zM209 321q-6 -17 -3 -20.5t24 -3.5h123q22 0 25.5 5.5t-3.5 25.5l-54 163l-12 36t-11 27h-2q-2 -4 -9 -20t-15 -39zM407 232q-5 17 -11.5 21t-29.5 4
h-151q-19 0 -26 -4t-12 -20l-35 -105q-22 -66 -22 -83q0 -9 5.5 -13.5t23.5 -6.5l33 -3q5 -4 5 -13t-7 -12q-20 2 -45 2q-24 0 -59 1q-25 0 -50.5 -1t-45.5 -2q-5 3 -6 12t4 13l33 3q18 2 33.5 12t26.5 37q13 34 34.5 86.5t53.5 136.5l102 270q11 27 15 43t2 28
q18 5 31 16.5t21 21.5q5 0 9 -2t6 -7q10 -33 21.5 -67t22.5 -67l137 -402q11 -32 19.5 -52t17.5 -31.5t20.5 -16t27.5 -6.5l27 -3q5 -4 4.5 -13t-4.5 -12q-31 2 -59 2.5t-62 0.5q-36 0 -64.5 -1t-50.5 -2q-6 3 -6.5 12t4.5 13l29 3q16 2 25.5 6t9.5 12t-3.5 21.5t-9.5 31.5z
" />
    <glyph glyph-name="Acircumflex" unicode="&#xc2;" horiz-adv-x="623" 
d="M301 827q22 19 43 0l127 -122q0 -13 -12 -15l-120 68q-11 6 -17 6q-5 0 -16 -6l-118 -68q-7 0 -10.5 4.5t-3.5 10.5zM209 321q-6 -17 -3 -20.5t24 -3.5h123q22 0 25.5 5.5t-3.5 25.5l-54 163l-12 36t-11 27h-2q-2 -4 -9 -20t-15 -39zM407 232q-5 17 -11.5 21t-29.5 4
h-151q-19 0 -26 -4t-12 -20l-35 -105q-22 -66 -22 -83q0 -9 5.5 -13.5t23.5 -6.5l33 -3q5 -4 5 -13t-7 -12q-20 2 -45 2q-24 0 -59 1q-25 0 -50.5 -1t-45.5 -2q-5 3 -6 12t4 13l33 3q18 2 33.5 12t26.5 37q13 34 34.5 86.5t53.5 136.5l102 270q11 27 15 43t2 28
q18 5 31 16.5t21 21.5q5 0 9 -2t6 -7q10 -33 21.5 -67t22.5 -67l137 -402q11 -32 19.5 -52t17.5 -31.5t20.5 -16t27.5 -6.5l27 -3q5 -4 4.5 -13t-4.5 -12q-31 2 -59 2.5t-62 0.5q-36 0 -64.5 -1t-50.5 -2q-6 3 -6.5 12t4.5 13l29 3q16 2 25.5 6t9.5 12t-3.5 21.5t-9.5 31.5z
" />
    <glyph glyph-name="Atilde" unicode="&#xc3;" horiz-adv-x="623" 
d="M376 793q17 0 32 3t24 13q8 9 13.5 16.5t9.5 12.5q11 7 17 -4q-5 -18 -17.5 -40.5t-22.5 -33.5t-21.5 -14.5t-28.5 -3.5h-107q-23 0 -36 -4t-24 -15q-16 -15 -28 -38q-4 -2 -8.5 -1t-6.5 6q1 7 5 18.5t9 23.5t11.5 23.5t12.5 17.5q12 14 25 17t32 3h109zM209 321
q-6 -17 -3 -20.5t24 -3.5h123q22 0 25.5 5.5t-3.5 25.5l-54 163l-12 36t-11 27h-2q-2 -4 -9 -20t-15 -39zM407 232q-5 17 -11.5 21t-29.5 4h-151q-19 0 -26 -4t-12 -20l-35 -105q-22 -66 -22 -83q0 -9 5.5 -13.5t23.5 -6.5l33 -3q5 -4 5 -13t-7 -12q-20 2 -45 2q-24 0 -59 1
q-25 0 -50.5 -1t-45.5 -2q-5 3 -6 12t4 13l33 3q18 2 33.5 12t26.5 37q13 34 34.5 86.5t53.5 136.5l102 270q11 27 15 43t2 28q18 5 31 16.5t21 21.5q5 0 9 -2t6 -7q10 -33 21.5 -67t22.5 -67l137 -402q11 -32 19.5 -52t17.5 -31.5t20.5 -16t27.5 -6.5l27 -3q5 -4 4.5 -13
t-4.5 -12q-31 2 -59 2.5t-62 0.5q-36 0 -64.5 -1t-50.5 -2q-6 3 -6.5 12t4.5 13l29 3q16 2 25.5 6t9.5 12t-3.5 21.5t-9.5 31.5z" />
    <glyph glyph-name="Adieresis" unicode="&#xc4;" horiz-adv-x="623" 
d="M422 707q-22 0 -36.5 12t-14.5 37q-1 22 13.5 37.5t37.5 15.5q22 0 35 -15.5t13 -34.5q0 -23 -13 -37.5t-35 -14.5zM224 707q-22 0 -36 12t-14 37q-2 22 12.5 37.5t37.5 15.5q22 0 35.5 -15.5t13.5 -34.5q0 -23 -13.5 -37.5t-35.5 -14.5zM209 321q-6 -17 -3 -20.5
t24 -3.5h123q22 0 25.5 5.5t-3.5 25.5l-54 163l-12 36t-11 27h-2q-2 -4 -9 -20t-15 -39zM407 232q-5 17 -11.5 21t-29.5 4h-151q-19 0 -26 -4t-12 -20l-35 -105q-22 -66 -22 -83q0 -9 5.5 -13.5t23.5 -6.5l33 -3q5 -4 5 -13t-7 -12q-20 2 -45 2q-24 0 -59 1q-25 0 -50.5 -1
t-45.5 -2q-5 3 -6 12t4 13l33 3q18 2 33.5 12t26.5 37q13 34 34.5 86.5t53.5 136.5l102 270q11 27 15 43t2 28q18 5 31 16.5t21 21.5q5 0 9 -2t6 -7q10 -33 21.5 -67t22.5 -67l137 -402q11 -32 19.5 -52t17.5 -31.5t20.5 -16t27.5 -6.5l27 -3q5 -4 4.5 -13t-4.5 -12
q-31 2 -59 2.5t-62 0.5q-36 0 -64.5 -1t-50.5 -2q-6 3 -6.5 12t4.5 13l29 3q16 2 25.5 6t9.5 12t-3.5 21.5t-9.5 31.5z" />
    <glyph glyph-name="Aring" unicode="&#xc5;" horiz-adv-x="623" 
d="M209 321q-6 -17 -3 -20.5t24 -3.5h123q22 0 25.5 5.5t-3.5 25.5l-54 163l-12 36t-11 27h-2q-2 -4 -9 -20t-15 -39zM215 257q-19 0 -26 -4t-12 -20l-35 -105q-22 -66 -22 -83q0 -9 5.5 -13.5t23.5 -6.5l33 -3q5 -4 5 -13t-7 -12q-20 2 -45 2q-24 0 -59 1q-25 0 -50.5 -1
t-45.5 -2q-5 3 -6 12t4 13l33 3q18 2 33.5 12t26.5 37q13 34 34.5 86.5t53.5 136.5l102 270q10 25 16 41.5t13 38.5q-32 9 -51.5 34.5t-19.5 56.5q0 38 27.5 66.5t72.5 28.5t72.5 -28.5t27.5 -66.5q0 -30 -18.5 -55t-50.5 -35q8 -26 18.5 -56t20.5 -59l137 -402
q11 -32 19.5 -52t17.5 -31.5t20.5 -16t27.5 -6.5l27 -3q5 -4 4.5 -13t-4.5 -12q-31 2 -59 2.5t-62 0.5q-36 0 -64.5 -1t-50.5 -2q-6 3 -6.5 12t4.5 13l29 3q16 2 25.5 6t9.5 12t-3.5 21.5t-9.5 31.5l-44 136q-5 17 -11.5 21t-29.5 4h-151zM266 738q0 -27 15 -44.5t38 -17.5
t38 17.5t15 44.5q0 26 -15 44t-38 18t-38 -18t-15 -44z" />
    <glyph glyph-name="AE" unicode="&#xc6;" horiz-adv-x="850" 
d="M351 361q16 0 25 0.5t13 3.5t5 9.5t1 18.5v195q0 9 -1 21t-5 15h-5q-6 -3 -12 -13t-11 -18q-18 -34 -35 -67t-31 -60.5t-24.5 -49t-15.5 -33.5q-8 -16 -4 -19t33 -3h67zM625 660q48 0 87 0.5t48 2.5q2 -6 4.5 -21.5t4.5 -34.5t3.5 -39.5t3.5 -36.5q-3 -5 -12 -6.5
t-13 3.5l-11 33t-13 27.5t-20.5 21.5t-31.5 14q-16 3 -40 4t-57 1h-72q-11 0 -17 -1t-8.5 -5t-3 -12t-0.5 -22v-200q0 -11 1 -16.5t4.5 -8t10 -3t17.5 -0.5h58q32 0 54 1.5t31 4.5t14.5 9.5t9.5 25.5l8 41q4 5 13.5 4.5t12.5 -5.5q0 -18 -2 -45t-2 -56q0 -27 2 -53t2 -43
q-3 -5 -12.5 -5.5t-13.5 4.5l-9 39q-3 14 -9.5 24t-21.5 14q-11 3 -29.5 4t-47.5 1h-58q-23 0 -28 -3.5t-5 -23.5v-141q0 -41 3.5 -66t14.5 -38q4 -5 11.5 -9t21 -7t35 -5t54.5 -2q28 0 48.5 0.5t35 2.5t25 4.5t18.5 7.5q14 8 32.5 33t38.5 64q5 4 13.5 2t11.5 -9
q-3 -14 -8.5 -33.5t-12 -39.5t-13 -38t-11.5 -28q-34 1 -67 1.5t-67 0.5q-33 1 -67 1h-67h-92q-30 0 -59.5 -1t-73.5 -2q-5 2 -6 11t4 14l34 3q21 2 33 7t18.5 18t8 37t1.5 63v147q0 11 -1 17t-5 8.5t-13 3t-25 0.5h-82q-16 0 -25 -1t-15 -5.5t-11 -13t-14 -24.5
q-66 -123 -101 -212q-8 -21 -6 -29.5t21 -10.5l54 -8q5 -5 4.5 -13.5t-5.5 -11.5q-60 3 -110 3q-29 0 -51.5 -1t-51.5 -2q-6 3 -7 12t6 13l31 5q18 3 32.5 16.5t37.5 55.5q35 64 69.5 129t66 125.5t59 113.5t48.5 93q11 21 17.5 35t6.5 22q0 6 -5.5 8t-16.5 4l-60 9
q-5 5 -4 14t7 11q35 -2 59.5 -2.5t57.5 -0.5h262z" />
    <glyph glyph-name="Ccedilla" unicode="&#xc7;" horiz-adv-x="696" 
d="M411 -15q-62 2 -118.5 17t-106.5 49q-60 41 -101 109.5t-41 165.5q0 84 34.5 152t91.5 113q55 43 123.5 64t146.5 21q20 0 43.5 -2t47.5 -5t46 -7.5t40 -9.5q9 -2 15 -3.5t13 -0.5q0 -9 1.5 -24.5t3 -35t4 -42t5.5 -45.5q-4 -5 -13 -6t-14 4q-6 25 -18 51t-35.5 47
t-60.5 34.5t-91 13.5q-57 0 -108.5 -18.5t-90.5 -56t-61.5 -94.5t-22.5 -135q0 -79 23.5 -139.5t63.5 -102t94 -63t116 -21.5q48 0 83.5 14t60.5 35.5t40.5 46.5t24.5 47q5 4 14 2.5t12 -6.5q-3 -20 -8.5 -41t-12.5 -40t-14 -34t-13 -22q-9 -2 -18 -4.5t-17 -5.5t-23 -6.5
t-35 -7t-42.5 -6t-45.5 -2.5l-18 -25q-9 -14 10 -23q21 -15 34.5 -33.5t13.5 -41.5q0 -20 -9.5 -37t-25 -29t-35 -19t-39.5 -7q-29 0 -44.5 10.5t-15.5 25.5q0 9 6.5 18.5t19.5 9.5q8 0 15.5 -5t14.5 -10.5t13.5 -10.5t11.5 -5q10 0 19 7.5t9 25.5q0 20 -19 39t-46 30v7z
" />
    <glyph glyph-name="Egrave" unicode="&#xc8;" horiz-adv-x="584" 
d="M148 770q-11 5 -17 8.5t-9 8.5q-6 11 8 31q5 10 12.5 16.5t12.5 6.5q11 0 27 -13l156 -119q2 -7 -1 -11.5t-8 -6.5zM128 510q0 39 -1 62.5t-7 37t-18.5 18.5t-34.5 8l-16 2q-5 3 -4 13t6 12q17 -1 31.5 -1.5t28.5 -0.5q14 -1 28 -1h30h188q48 0 87 0.5t48 2.5
q2 -6 4.5 -21.5t4.5 -35t3.5 -40t3.5 -36.5q-3 -5 -12 -6t-13 4l-11 33t-13 27t-20.5 21t-31.5 14q-16 4 -40 5t-57 1h-72q-11 0 -17 -1t-9 -5t-3.5 -12t-0.5 -22v-200q0 -11 1 -16.5t4.5 -8t10 -3t17.5 -0.5h58q32 0 54 1.5t31 4.5t14.5 9.5t9.5 25.5l8 41q4 5 13.5 4.5
t12.5 -5.5q0 -18 -2 -45t-2 -56q0 -27 2 -53t2 -43q-3 -5 -12.5 -5.5t-13.5 4.5l-9 39q-3 14 -9.5 24t-21.5 14q-11 3 -29.5 4t-47.5 1h-58q-23 0 -28 -3.5t-5 -23.5v-141q0 -40 3.5 -65.5t15.5 -38.5q4 -5 11.5 -9t20.5 -7t34.5 -5t54.5 -2q29 0 49.5 1t35 2.5t25 4.5
t18.5 7q14 8 32.5 33t38.5 64q5 4 13.5 2t11.5 -9q-3 -13 -8.5 -32.5t-12 -40t-13 -38.5t-11.5 -28q-34 1 -67.5 1.5t-66.5 0.5q-34 1 -67 1h-67h-90q-32 0 -62 -1t-74 -2q-5 2 -6 11t4 14l33 3q21 2 33.5 7t19 18t8 37t1.5 63v360z" />
    <glyph glyph-name="Eacute" unicode="&#xc9;" horiz-adv-x="584" 
d="M276 691q-6 2 -9 6.5t-1 11.5l156 119q16 13 27 13q5 0 12.5 -6.5t12.5 -16.5q14 -20 8 -31q-3 -5 -9 -8.5t-17 -8.5zM128 510q0 39 -1 62.5t-7 37t-18.5 18.5t-34.5 8l-16 2q-5 3 -4 13t6 12q17 -1 31.5 -1.5t28.5 -0.5q14 -1 28 -1h30h188q48 0 87 0.5t48 2.5
q2 -6 4.5 -21.5t4.5 -35t3.5 -40t3.5 -36.5q-3 -5 -12 -6t-13 4l-11 33t-13 27t-20.5 21t-31.5 14q-16 4 -40 5t-57 1h-72q-11 0 -17 -1t-9 -5t-3.5 -12t-0.5 -22v-200q0 -11 1 -16.5t4.5 -8t10 -3t17.5 -0.5h58q32 0 54 1.5t31 4.5t14.5 9.5t9.5 25.5l8 41q4 5 13.5 4.5
t12.5 -5.5q0 -18 -2 -45t-2 -56q0 -27 2 -53t2 -43q-3 -5 -12.5 -5.5t-13.5 4.5l-9 39q-3 14 -9.5 24t-21.5 14q-11 3 -29.5 4t-47.5 1h-58q-23 0 -28 -3.5t-5 -23.5v-141q0 -40 3.5 -65.5t15.5 -38.5q4 -5 11.5 -9t20.5 -7t34.5 -5t54.5 -2q29 0 49.5 1t35 2.5t25 4.5
t18.5 7q14 8 32.5 33t38.5 64q5 4 13.5 2t11.5 -9q-3 -13 -8.5 -32.5t-12 -40t-13 -38.5t-11.5 -28q-34 1 -67.5 1.5t-66.5 0.5q-34 1 -67 1h-67h-90q-32 0 -62 -1t-74 -2q-5 2 -6 11t4 14l33 3q21 2 33.5 7t19 18t8 37t1.5 63v360z" />
    <glyph glyph-name="Ecircumflex" unicode="&#xca;" horiz-adv-x="584" 
d="M286 827q22 19 43 0l127 -122q0 -13 -12 -15l-120 68q-11 6 -17 6q-5 0 -16 -6l-118 -68q-7 0 -10.5 4.5t-3.5 10.5zM128 510q0 39 -1 62.5t-7 37t-18.5 18.5t-34.5 8l-16 2q-5 3 -4 13t6 12q17 -1 31.5 -1.5t28.5 -0.5q14 -1 28 -1h30h188q48 0 87 0.5t48 2.5
q2 -6 4.5 -21.5t4.5 -35t3.5 -40t3.5 -36.5q-3 -5 -12 -6t-13 4l-11 33t-13 27t-20.5 21t-31.5 14q-16 4 -40 5t-57 1h-72q-11 0 -17 -1t-9 -5t-3.5 -12t-0.5 -22v-200q0 -11 1 -16.5t4.5 -8t10 -3t17.5 -0.5h58q32 0 54 1.5t31 4.5t14.5 9.5t9.5 25.5l8 41q4 5 13.5 4.5
t12.5 -5.5q0 -18 -2 -45t-2 -56q0 -27 2 -53t2 -43q-3 -5 -12.5 -5.5t-13.5 4.5l-9 39q-3 14 -9.5 24t-21.5 14q-11 3 -29.5 4t-47.5 1h-58q-23 0 -28 -3.5t-5 -23.5v-141q0 -40 3.5 -65.5t15.5 -38.5q4 -5 11.5 -9t20.5 -7t34.5 -5t54.5 -2q29 0 49.5 1t35 2.5t25 4.5
t18.5 7q14 8 32.5 33t38.5 64q5 4 13.5 2t11.5 -9q-3 -13 -8.5 -32.5t-12 -40t-13 -38.5t-11.5 -28q-34 1 -67.5 1.5t-66.5 0.5q-34 1 -67 1h-67h-90q-32 0 -62 -1t-74 -2q-5 2 -6 11t4 14l33 3q21 2 33.5 7t19 18t8 37t1.5 63v360z" />
    <glyph glyph-name="Edieresis" unicode="&#xcb;" horiz-adv-x="584" 
d="M402 707q-22 0 -36.5 12t-14.5 37q-1 22 13.5 37.5t37.5 15.5q22 0 35 -15.5t13 -34.5q0 -23 -13 -37.5t-35 -14.5zM204 707q-22 0 -36 12t-14 37q-2 22 12.5 37.5t37.5 15.5q22 0 35.5 -15.5t13.5 -34.5q0 -23 -13.5 -37.5t-35.5 -14.5zM128 510q0 39 -1 62.5t-7 37
t-18.5 18.5t-34.5 8l-16 2q-5 3 -4 13t6 12q17 -1 31.5 -1.5t28.5 -0.5q14 -1 28 -1h30h188q48 0 87 0.5t48 2.5q2 -6 4.5 -21.5t4.5 -35t3.5 -40t3.5 -36.5q-3 -5 -12 -6t-13 4l-11 33t-13 27t-20.5 21t-31.5 14q-16 4 -40 5t-57 1h-72q-11 0 -17 -1t-9 -5t-3.5 -12
t-0.5 -22v-200q0 -11 1 -16.5t4.5 -8t10 -3t17.5 -0.5h58q32 0 54 1.5t31 4.5t14.5 9.5t9.5 25.5l8 41q4 5 13.5 4.5t12.5 -5.5q0 -18 -2 -45t-2 -56q0 -27 2 -53t2 -43q-3 -5 -12.5 -5.5t-13.5 4.5l-9 39q-3 14 -9.5 24t-21.5 14q-11 3 -29.5 4t-47.5 1h-58q-23 0 -28 -3.5
t-5 -23.5v-141q0 -40 3.5 -65.5t15.5 -38.5q4 -5 11.5 -9t20.5 -7t34.5 -5t54.5 -2q29 0 49.5 1t35 2.5t25 4.5t18.5 7q14 8 32.5 33t38.5 64q5 4 13.5 2t11.5 -9q-3 -13 -8.5 -32.5t-12 -40t-13 -38.5t-11.5 -28q-34 1 -67.5 1.5t-66.5 0.5q-34 1 -67 1h-67h-90
q-32 0 -62 -1t-74 -2q-5 2 -6 11t4 14l33 3q21 2 33.5 7t19 18t8 37t1.5 63v360z" />
    <glyph glyph-name="Igrave" unicode="&#xcc;" horiz-adv-x="338" 
d="M15 770q-11 5 -17 8.5t-9 8.5q-6 11 8 31q5 10 12.5 16.5t12.5 6.5q11 0 27 -13l156 -119q2 -7 -1 -11.5t-8 -6.5zM128 508q0 40 -1 64t-7 37.5t-18.5 19t-34.5 7.5l-25 2q-5 3 -4 13t6 12q38 -2 66 -2.5t60 -0.5q30 0 58 0.5t66 2.5q5 -2 6 -12t-4 -13l-25 -2
q-22 -2 -34.5 -7.5t-18.5 -19t-7 -37.5t-1 -64v-356q0 -40 1 -63.5t7 -37t18.5 -18.5t34.5 -8l25 -3q5 -3 4 -13t-6 -12q-38 2 -66 2.5t-58 0.5q-32 0 -60 -0.5t-66 -2.5q-5 2 -6 11t4 14l25 3q22 3 34.5 8t18.5 18.5t7 37t1 63.5v356z" />
    <glyph glyph-name="Iacute" unicode="&#xcd;" horiz-adv-x="338" 
d="M148 691q-6 2 -9 6.5t-1 11.5l156 119q16 13 27 13q5 0 12.5 -6.5t12.5 -16.5q14 -20 8 -31q-3 -5 -9 -8.5t-17 -8.5zM128 508q0 40 -1 64t-7 37.5t-18.5 19t-34.5 7.5l-25 2q-5 3 -4 13t6 12q38 -2 66 -2.5t60 -0.5q30 0 58 0.5t66 2.5q5 -2 6 -12t-4 -13l-25 -2
q-22 -2 -34.5 -7.5t-18.5 -19t-7 -37.5t-1 -64v-356q0 -40 1 -63.5t7 -37t18.5 -18.5t34.5 -8l25 -3q5 -3 4 -13t-6 -12q-38 2 -66 2.5t-58 0.5q-32 0 -60 -0.5t-66 -2.5q-5 2 -6 11t4 14l25 3q22 3 34.5 8t18.5 18.5t7 37t1 63.5v356z" />
    <glyph glyph-name="Icircumflex" unicode="&#xce;" horiz-adv-x="338" 
d="M148 827q22 19 43 0l127 -122q0 -13 -12 -15l-120 68q-11 6 -17 6q-5 0 -16 -6l-118 -68q-7 0 -10.5 4.5t-3.5 10.5zM128 508q0 40 -1 64t-7 37.5t-18.5 19t-34.5 7.5l-25 2q-5 3 -4 13t6 12q38 -2 66 -2.5t60 -0.5q30 0 58 0.5t66 2.5q5 -2 6 -12t-4 -13l-25 -2
q-22 -2 -34.5 -7.5t-18.5 -19t-7 -37.5t-1 -64v-356q0 -40 1 -63.5t7 -37t18.5 -18.5t34.5 -8l25 -3q5 -3 4 -13t-6 -12q-38 2 -66 2.5t-58 0.5q-32 0 -60 -0.5t-66 -2.5q-5 2 -6 11t4 14l25 3q22 3 34.5 8t18.5 18.5t7 37t1 63.5v356z" />
    <glyph glyph-name="Idieresis" unicode="&#xcf;" horiz-adv-x="338" 
d="M269 707q-22 0 -36.5 12t-14.5 37q-1 22 13.5 37.5t37.5 15.5q22 0 35 -15.5t13 -34.5q0 -23 -13 -37.5t-35 -14.5zM71 707q-22 0 -36 12t-14 37q-2 22 12.5 37.5t37.5 15.5q22 0 35.5 -15.5t13.5 -34.5q0 -23 -13.5 -37.5t-35.5 -14.5zM128 508q0 40 -1 64t-7 37.5
t-18.5 19t-34.5 7.5l-25 2q-5 3 -4 13t6 12q38 -2 66 -2.5t60 -0.5q30 0 58 0.5t66 2.5q5 -2 6 -12t-4 -13l-25 -2q-22 -2 -34.5 -7.5t-18.5 -19t-7 -37.5t-1 -64v-356q0 -40 1 -63.5t7 -37t18.5 -18.5t34.5 -8l25 -3q5 -3 4 -13t-6 -12q-38 2 -66 2.5t-58 0.5
q-32 0 -60 -0.5t-66 -2.5q-5 2 -6 11t4 14l25 3q22 3 34.5 8t18.5 18.5t7 37t1 63.5v356z" />
    <glyph glyph-name="Eth" unicode="&#xd0;" horiz-adv-x="786" 
d="M210 361h144q7 -5 7 -18q0 -12 -7 -17h-144v-153q0 -40 3.5 -65.5t16.5 -43.5q17 -23 46 -32t77 -9q73 0 126 22.5t87.5 64t51 99t16.5 127.5q0 27 -5 59.5t-18.5 65.5t-36 63.5t-57.5 54.5t-84 38.5t-114 14.5q-45 0 -69 -4.5t-30 -9.5q-10 -8 -10 -76v-181zM128 326
h-90q-7 5 -7 17q0 13 7 18h90v144q0 34 -1 57t-6.5 38t-16 22t-28.5 9l-17 2q-6 3 -6.5 12t7.5 12q64 2 127.5 4t127.5 2q63 0 115 -5.5t101 -23.5q51 -18 89 -48t63.5 -68.5t38 -83.5t12.5 -94q0 -97 -44.5 -175t-130.5 -125q-49 -26 -107.5 -37t-116.5 -11q-24 0 -47.5 1
t-44.5 3q-22 2 -39.5 3t-31.5 1q-32 0 -61 -0.5t-64 -2.5q-5 2 -6 11t4 14l23 3q22 3 34 8t18 18t7 36.5t1 62.5v176z" />
    <glyph glyph-name="Ntilde" unicode="&#xd1;" horiz-adv-x="783" 
d="M466 793q17 0 32 3t24 13q8 9 13.5 16.5t9.5 12.5q11 7 17 -4q-5 -18 -17.5 -40.5t-22.5 -33.5t-21.5 -14.5t-28.5 -3.5h-107q-23 0 -36 -4t-24 -15q-16 -15 -28 -38q-4 -2 -8.5 -1t-6.5 6q1 7 5 18.5t9 23.5t11.5 23.5t12.5 17.5q12 14 25 17t32 3h109zM666 170v-36
t0.5 -53t1 -52t1.5 -34q-4 -11 -19 -11q-5 6 -13 16.5t-23 28t-37 43.5t-55 63l-232 264q-10 12 -26.5 31.5t-34 39.5t-32.5 38t-23 26h-2q-3 -9 -4 -25.5t-1 -39.5v-218q0 -18 0.5 -48t2.5 -61.5t5.5 -59t9.5 -38.5q5 -8 18.5 -12.5t32.5 -6.5l31 -3q5 -6 4 -13.5t-6 -11.5
q-34 2 -61.5 2.5t-55.5 0.5q-32 0 -55 -0.5t-49 -2.5q-5 4 -6 12t4 13l27 3q36 3 44 20q5 13 8 40.5t4 58t1 59.5v48v289q0 21 -3 38t-19 34q-11 11 -27.5 16.5t-34.5 7.5l-17 2q-5 5 -4.5 13.5t6.5 11.5q32 -2 65.5 -2.5t47.5 -0.5q26 0 46 3q7 -19 30.5 -50.5t50.5 -64.5
t52.5 -62t37.5 -43l97 -109q51 -59 90.5 -102t74.5 -79h2q3 4 3.5 15t0.5 27v214q0 18 -0.5 48t-2.5 61.5t-6 59t-11 38.5q-5 7 -18.5 11.5t-43.5 8.5l-17 2q-5 5 -4.5 14t6.5 11q35 -2 62 -2.5t56 -0.5q32 0 54.5 0.5t48.5 2.5q6 -4 6.5 -12t-4.5 -13l-14 -2
q-49 -8 -56 -21q-6 -14 -9.5 -41t-4.5 -58t-1 -61v-46v-239z" />
    <glyph glyph-name="Ograve" unicode="&#xd2;" horiz-adv-x="795" 
d="M249 770q-11 5 -17 8.5t-9 8.5q-6 11 8 31q5 10 12.5 16.5t12.5 6.5q11 0 27 -13l156 -119q2 -7 -1 -11.5t-8 -6.5zM415 15q45 0 87 17t75 52.5t52.5 89.5t19.5 128q0 62 -14.5 123.5t-46 110t-81.5 79t-122 30.5q-39 0 -81 -14.5t-77.5 -48.5t-58 -89.5t-22.5 -137.5
q0 -56 14.5 -116t46.5 -109.5t83 -82t125 -32.5zM402 -16q-83 0 -149 27.5t-112 74.5t-70.5 108t-24.5 129q0 75 26.5 139.5t74 112t113 74.5t142.5 27q87 0 152 -29t108.5 -76.5t65 -109.5t21.5 -128q0 -76 -27 -140t-74 -110.5t-110.5 -72.5t-135.5 -26z" />
    <glyph glyph-name="Oacute" unicode="&#xd3;" horiz-adv-x="795" 
d="M362 691q-6 2 -9 6.5t-1 11.5l156 119q16 13 27 13q5 0 12.5 -6.5t12.5 -16.5q14 -20 8 -31q-3 -5 -9 -8.5t-17 -8.5zM415 15q45 0 87 17t75 52.5t52.5 89.5t19.5 128q0 62 -14.5 123.5t-46 110t-81.5 79t-122 30.5q-39 0 -81 -14.5t-77.5 -48.5t-58 -89.5t-22.5 -137.5
q0 -56 14.5 -116t46.5 -109.5t83 -82t125 -32.5zM402 -16q-83 0 -149 27.5t-112 74.5t-70.5 108t-24.5 129q0 75 26.5 139.5t74 112t113 74.5t142.5 27q87 0 152 -29t108.5 -76.5t65 -109.5t21.5 -128q0 -76 -27 -140t-74 -110.5t-110.5 -72.5t-135.5 -26z" />
    <glyph glyph-name="Ocircumflex" unicode="&#xd4;" horiz-adv-x="795" 
d="M377 827q22 19 43 0l127 -122q0 -13 -12 -15l-120 68q-11 6 -17 6q-5 0 -16 -6l-118 -68q-7 0 -10.5 4.5t-3.5 10.5zM415 15q45 0 87 17t75 52.5t52.5 89.5t19.5 128q0 62 -14.5 123.5t-46 110t-81.5 79t-122 30.5q-39 0 -81 -14.5t-77.5 -48.5t-58 -89.5t-22.5 -137.5
q0 -56 14.5 -116t46.5 -109.5t83 -82t125 -32.5zM402 -16q-83 0 -149 27.5t-112 74.5t-70.5 108t-24.5 129q0 75 26.5 139.5t74 112t113 74.5t142.5 27q87 0 152 -29t108.5 -76.5t65 -109.5t21.5 -128q0 -76 -27 -140t-74 -110.5t-110.5 -72.5t-135.5 -26z" />
    <glyph glyph-name="Otilde" unicode="&#xd5;" horiz-adv-x="795" 
d="M452 793q17 0 32 3t24 13q8 9 13.5 16.5t9.5 12.5q11 7 17 -4q-5 -18 -17.5 -40.5t-22.5 -33.5t-21.5 -14.5t-28.5 -3.5h-107q-23 0 -36 -4t-24 -15q-16 -15 -28 -38q-4 -2 -8.5 -1t-6.5 6q1 7 5 18.5t9 23.5t11.5 23.5t12.5 17.5q12 14 25 17t32 3h109zM415 15
q45 0 87 17t75 52.5t52.5 89.5t19.5 128q0 62 -14.5 123.5t-46 110t-81.5 79t-122 30.5q-39 0 -81 -14.5t-77.5 -48.5t-58 -89.5t-22.5 -137.5q0 -56 14.5 -116t46.5 -109.5t83 -82t125 -32.5zM402 -16q-83 0 -149 27.5t-112 74.5t-70.5 108t-24.5 129q0 75 26.5 139.5
t74 112t113 74.5t142.5 27q87 0 152 -29t108.5 -76.5t65 -109.5t21.5 -128q0 -76 -27 -140t-74 -110.5t-110.5 -72.5t-135.5 -26z" />
    <glyph glyph-name="Odieresis" unicode="&#xd6;" horiz-adv-x="795" 
d="M498 707q-22 0 -36.5 12t-14.5 37q-1 22 13.5 37.5t37.5 15.5q22 0 35 -15.5t13 -34.5q0 -23 -13 -37.5t-35 -14.5zM300 707q-22 0 -36 12t-14 37q-2 22 12.5 37.5t37.5 15.5q22 0 35.5 -15.5t13.5 -34.5q0 -23 -13.5 -37.5t-35.5 -14.5zM415 15q45 0 87 17t75 52.5
t52.5 89.5t19.5 128q0 62 -14.5 123.5t-46 110t-81.5 79t-122 30.5q-39 0 -81 -14.5t-77.5 -48.5t-58 -89.5t-22.5 -137.5q0 -56 14.5 -116t46.5 -109.5t83 -82t125 -32.5zM402 -16q-83 0 -149 27.5t-112 74.5t-70.5 108t-24.5 129q0 75 26.5 139.5t74 112t113 74.5
t142.5 27q87 0 152 -29t108.5 -76.5t65 -109.5t21.5 -128q0 -76 -27 -140t-74 -110.5t-110.5 -72.5t-135.5 -26z" />
    <glyph glyph-name="multiply" unicode="&#xd7;" 
d="M288 199l148 -149l-37 -39l-149 150l-148 -150l-37 39l147 149l-147 147l37 39l148 -148l149 150l37 -38z" />
    <glyph glyph-name="Oslash" unicode="&#xd8;" horiz-adv-x="795" 
d="M562 569q-32 35 -76 55.5t-101 20.5q-39 0 -81 -14.5t-77.5 -48.5t-58 -89.5t-22.5 -137.5q0 -57 15 -118t50 -112zM235 94q32 -36 76.5 -57.5t103.5 -21.5q45 0 87 17t75 52.5t52.5 89.5t19.5 128q0 63 -15 124.5t-48 110.5zM635 598q57 -49 85.5 -119t28.5 -149
q0 -75 -27 -138t-74 -109.5t-110.5 -72.5t-135.5 -26q-60 0 -112.5 15.5t-94.5 43.5l-67 -83q-11 0 -19.5 7t-9.5 18l65 81q-57 47 -87.5 114t-30.5 143q0 75 26.5 139.5t74 112t113 74.5t142.5 27q60 0 110 -14.5t91 -40.5l57 72q11 -1 20.5 -8.5t9.5 -16.5z" />
    <glyph glyph-name="Ugrave" unicode="&#xd9;" horiz-adv-x="746" 
d="M239 770q-11 5 -17 8.5t-9 8.5q-6 11 8 31q5 10 12.5 16.5t12.5 6.5q11 0 27 -13l156 -119q2 -7 -1 -11.5t-8 -6.5zM605 409q0 23 -0.5 54t-2.5 61.5t-6 55.5t-10 36q-10 18 -50 21l-25 2q-5 5 -4 13t6 11q57 -3 114 -3q32 0 55 0.5t50 2.5q6 -4 6 -12q0 -7 -4 -12
l-24 -2q-19 -2 -32.5 -8t-17.5 -16q-6 -12 -8.5 -37.5t-4 -55.5t-1.5 -60v-51v-113q0 -33 -3 -66t-11 -64t-21.5 -59t-34.5 -50q-32 -35 -83.5 -54t-107.5 -19q-52 0 -101 11.5t-86 43.5q-40 33 -59 89.5t-19 146.5v236q0 39 -1 63t-7 37.5t-18 18.5t-34 7l-25 2
q-5 3 -4 12.5t6 11.5q38 -2 66 -2.5t58 -0.5q31 0 58.5 0.5t64.5 2.5q5 -2 6 -11.5t-4 -12.5l-24 -2q-22 -2 -34 -7t-18 -18.5t-7 -37.5t-1 -63v-216q0 -60 10 -109.5t34 -84.5t63 -54t96 -19q54 0 92 20t62 56t35 84.5t11 105.5v115z" />
    <glyph glyph-name="Uacute" unicode="&#xda;" horiz-adv-x="746" 
d="M362 691q-6 2 -9 6.5t-1 11.5l156 119q16 13 27 13q5 0 12.5 -6.5t12.5 -16.5q14 -20 8 -31q-3 -5 -9 -8.5t-17 -8.5zM605 409q0 23 -0.5 54t-2.5 61.5t-6 55.5t-10 36q-10 18 -50 21l-25 2q-5 5 -4 13t6 11q57 -3 114 -3q32 0 55 0.5t50 2.5q6 -4 6 -12q0 -7 -4 -12
l-24 -2q-19 -2 -32.5 -8t-17.5 -16q-6 -12 -8.5 -37.5t-4 -55.5t-1.5 -60v-51v-113q0 -33 -3 -66t-11 -64t-21.5 -59t-34.5 -50q-32 -35 -83.5 -54t-107.5 -19q-52 0 -101 11.5t-86 43.5q-40 33 -59 89.5t-19 146.5v236q0 39 -1 63t-7 37.5t-18 18.5t-34 7l-25 2
q-5 3 -4 12.5t6 11.5q38 -2 66 -2.5t58 -0.5q31 0 58.5 0.5t64.5 2.5q5 -2 6 -11.5t-4 -12.5l-24 -2q-22 -2 -34 -7t-18 -18.5t-7 -37.5t-1 -63v-216q0 -60 10 -109.5t34 -84.5t63 -54t96 -19q54 0 92 20t62 56t35 84.5t11 105.5v115z" />
    <glyph glyph-name="Ucircumflex" unicode="&#xdb;" horiz-adv-x="746" 
d="M372 827q22 19 43 0l127 -122q0 -13 -12 -15l-120 68q-11 6 -17 6q-5 0 -16 -6l-118 -68q-7 0 -10.5 4.5t-3.5 10.5zM605 409q0 23 -0.5 54t-2.5 61.5t-6 55.5t-10 36q-10 18 -50 21l-25 2q-5 5 -4 13t6 11q57 -3 114 -3q32 0 55 0.5t50 2.5q6 -4 6 -12q0 -7 -4 -12
l-24 -2q-19 -2 -32.5 -8t-17.5 -16q-6 -12 -8.5 -37.5t-4 -55.5t-1.5 -60v-51v-113q0 -33 -3 -66t-11 -64t-21.5 -59t-34.5 -50q-32 -35 -83.5 -54t-107.5 -19q-52 0 -101 11.5t-86 43.5q-40 33 -59 89.5t-19 146.5v236q0 39 -1 63t-7 37.5t-18 18.5t-34 7l-25 2
q-5 3 -4 12.5t6 11.5q38 -2 66 -2.5t58 -0.5q31 0 58.5 0.5t64.5 2.5q5 -2 6 -11.5t-4 -12.5l-24 -2q-22 -2 -34 -7t-18 -18.5t-7 -37.5t-1 -63v-216q0 -60 10 -109.5t34 -84.5t63 -54t96 -19q54 0 92 20t62 56t35 84.5t11 105.5v115z" />
    <glyph glyph-name="Udieresis" unicode="&#xdc;" horiz-adv-x="746" 
d="M483 707q-22 0 -36.5 12t-14.5 37q-1 22 13.5 37.5t37.5 15.5q22 0 35 -15.5t13 -34.5q0 -23 -13 -37.5t-35 -14.5zM285 707q-22 0 -36 12t-14 37q-2 22 12.5 37.5t37.5 15.5q22 0 35.5 -15.5t13.5 -34.5q0 -23 -13.5 -37.5t-35.5 -14.5zM605 409q0 23 -0.5 54t-2.5 61.5
t-6 55.5t-10 36q-10 18 -50 21l-25 2q-5 5 -4 13t6 11q57 -3 114 -3q32 0 55 0.5t50 2.5q6 -4 6 -12q0 -7 -4 -12l-24 -2q-19 -2 -32.5 -8t-17.5 -16q-6 -12 -8.5 -37.5t-4 -55.5t-1.5 -60v-51v-113q0 -33 -3 -66t-11 -64t-21.5 -59t-34.5 -50q-32 -35 -83.5 -54t-107.5 -19
q-52 0 -101 11.5t-86 43.5q-40 33 -59 89.5t-19 146.5v236q0 39 -1 63t-7 37.5t-18 18.5t-34 7l-25 2q-5 3 -4 12.5t6 11.5q38 -2 66 -2.5t58 -0.5q31 0 58.5 0.5t64.5 2.5q5 -2 6 -11.5t-4 -12.5l-24 -2q-22 -2 -34 -7t-18 -18.5t-7 -37.5t-1 -63v-216q0 -60 10 -109.5
t34 -84.5t63 -54t96 -19q54 0 92 20t62 56t35 84.5t11 105.5v115z" />
    <glyph glyph-name="Yacute" unicode="&#xdd;" horiz-adv-x="574" 
d="M301 691q-6 2 -9 6.5t-1 11.5l156 119q16 13 27 13q5 0 12.5 -6.5t12.5 -16.5q14 -20 8 -31q-3 -5 -9 -8.5t-17 -8.5zM336 152q0 -40 2 -64.5t8 -38t18 -18.5t32 -6l38 -3q5 -5 4 -14t-6 -11q-23 1 -41.5 1.5t-34.5 1t-31 0.5h-29q-32 0 -61.5 -0.5t-69.5 -2.5
q-5 2 -6 11t4 14l31 3q22 2 34 7t18 18.5t7 37.5t1 64v51q0 21 -1 35t-4 26.5t-9.5 27t-17.5 35.5l-118 230q-13 25 -22.5 39t-18.5 21.5t-18 10.5t-20 5l-28 5q-5 5 -4 13.5t6 11.5q24 -2 52 -2.5t64 -0.5q69 0 107 3q7 -2 7.5 -11t-4.5 -14l-13 -2q-26 -5 -34 -8.5
t-8 -9.5q0 -4 4 -15t9.5 -23.5t10.5 -23.5t7 -15q28 -56 56 -113t57 -109q23 40 47 82.5t47 86.5q10 19 21.5 40.5t21.5 40.5t16 32.5t6 18.5t-12 9.5t-30 6.5l-18 2q-5 5 -4.5 13.5t6.5 11.5q27 -2 50 -2.5t46 -0.5t45 0.5t48 2.5q6 -4 6.5 -12t-4.5 -13l-28 -5
q-20 -3 -36 -16t-31 -34t-30.5 -48.5t-34.5 -59.5l-63 -109q-17 -28 -26.5 -46t-14 -34t-5.5 -34.5t-1 -47.5v-52z" />
    <glyph glyph-name="Thorn" unicode="&#xde;" horiz-adv-x="561" 
d="M128 510q0 41 -2 65t-8.5 37t-19 17.5t-33.5 6.5l-22 2q-5 3 -4 13t6 12q38 -2 66 -2.5t60 -0.5q34 0 60 0.5t61 2.5q5 -4 5 -13q0 -8 -3 -12l-16 -2q-24 -3 -37.5 -8.5t-20 -17t-8.5 -30.5t-2 -49h81q47 0 88.5 -10t72 -31.5t48.5 -55.5t18 -82q0 -30 -8.5 -54t-22 -42
t-29 -31t-30.5 -20q-36 -18 -77.5 -24.5t-68.5 -4.5q-5 2 -5 10t4 10q146 21 146 152q0 70 -40 111t-120 41q-20 0 -31.5 -1t-17 -5t-7 -10.5t-1.5 -18.5v-315q0 -39 1 -63t7 -37t18 -18t34 -7l37 -3q5 -3 4 -13t-6 -12q-45 2 -74.5 2.5t-59.5 0.5q-32 0 -60 -0.5t-63 -2.5
q-5 2 -6 11t4 14l22 3q22 3 34 8t18 18t7 36.5t1 62.5v360z" />
    <glyph glyph-name="germandbls" unicode="&#xdf;" horiz-adv-x="523" 
d="M169 112q0 -27 1 -43.5t4.5 -25.5t11 -12.5t21.5 -5.5l24 -3q5 -4 4 -13.5t-6 -11.5q-25 2 -48 2.5t-49 0.5q-27 0 -50 -0.5t-46 -2.5q-5 2 -6 11.5t4 13.5l23 3q14 2 21.5 5.5t11.5 12.5t4.5 25.5t0.5 43.5v211q0 20 -2.5 24.5t-17.5 4.5h-35q-5 3 -5.5 8.5t2.5 10.5
l43 21q6 3 10.5 7.5t4.5 12.5q0 39 7.5 84.5t27.5 86.5q12 24 30 48t42.5 42.5t55.5 30t69 11.5q37 0 63.5 -12t43.5 -31t25 -42.5t8 -47.5q0 -22 -6 -39t-15.5 -31t-22 -26.5t-24.5 -25.5l-21 -18q-23 -20 -35.5 -41t-12.5 -41q0 -30 23 -53.5t57 -50.5q15 -12 30.5 -26
t28 -30.5t20 -37t7.5 -45.5q0 -30 -12 -54t-32 -41.5t-46 -26.5t-53 -9q-28 0 -46.5 5.5t-27.5 13.5q-10 10 -12.5 26.5t6.5 30.5q3 5 9.5 6t11.5 -4t13.5 -13t18.5 -15.5t21 -13.5t20 -6q26 0 43.5 18.5t17.5 54.5q0 38 -23 65.5t-55 50.5q-38 27 -61.5 57.5t-23.5 65.5
q0 18 6 33.5t16 29t22.5 26t26.5 25.5q28 26 44.5 58.5t16.5 67.5q0 22 -7.5 42.5t-21 36t-32.5 24.5t-43 9q-30 0 -53 -20t-38.5 -56t-24 -85.5t-8.5 -107.5v-299z" />
    <glyph glyph-name="agrave" unicode="&#xe0;" horiz-adv-x="404" 
d="M230 454q-2 -14 -16 -12l-129 135q-17 17 -17 30q0 12 18 27q17 15 31 13q5 -1 11 -7.5t11 -16.5zM112 91q0 -6 2.5 -16.5t9.5 -20t19.5 -16.5t31.5 -7q15 0 34 8.5t27 16.5q9 9 11 20t2 27l2 59q0 8 -2.5 10.5t-7.5 2.5t-16 -2.5t-25 -7.5q-45 -15 -66.5 -30t-21.5 -44z
M237 207q11 4 13.5 11t3.5 18l1 46q0 14 -2.5 29.5t-10.5 28t-22.5 21t-37.5 8.5q-21 0 -41.5 -11t-22.5 -34q-1 -12 -2.5 -20.5t-7.5 -13.5q-11 -9 -28.5 -14t-28.5 -5q-14 0 -14 14q0 19 19 41t47 40t60.5 30t59.5 12q54 0 80 -30t24 -87l-6 -174q-2 -35 7.5 -61t38.5 -26
q8 0 14 2t11 4q4 2 7.5 4.5t5.5 2.5q7 0 7 -13q0 -2 -6 -9t-17.5 -15t-27 -14t-33.5 -6t-35 7t-30 24q-3 5 -7 9.5t-9 4.5t-14.5 -6t-24.5 -14q-17 -9 -34 -17t-38 -8q-44 0 -70 23q-14 13 -22.5 31t-8.5 39q0 29 17.5 48.5t65.5 36.5z" />
    <glyph glyph-name="aacute" unicode="&#xe1;" horiz-adv-x="404" 
d="M201 442q-14 -2 -16 12l91 169q5 10 11 16.5t11 7.5q14 2 31 -13q18 -15 18 -27q0 -13 -17 -30zM112 91q0 -6 2.5 -16.5t9.5 -20t19.5 -16.5t31.5 -7q15 0 34 8.5t27 16.5q9 9 11 20t2 27l2 59q0 8 -2.5 10.5t-7.5 2.5t-16 -2.5t-25 -7.5q-45 -15 -66.5 -30t-21.5 -44z
M237 207q11 4 13.5 11t3.5 18l1 46q0 14 -2.5 29.5t-10.5 28t-22.5 21t-37.5 8.5q-21 0 -41.5 -11t-22.5 -34q-1 -12 -2.5 -20.5t-7.5 -13.5q-11 -9 -28.5 -14t-28.5 -5q-14 0 -14 14q0 19 19 41t47 40t60.5 30t59.5 12q54 0 80 -30t24 -87l-6 -174q-2 -35 7.5 -61t38.5 -26
q8 0 14 2t11 4q4 2 7.5 4.5t5.5 2.5q7 0 7 -13q0 -2 -6 -9t-17.5 -15t-27 -14t-33.5 -6t-35 7t-30 24q-3 5 -7 9.5t-9 4.5t-14.5 -6t-24.5 -14q-17 -9 -34 -17t-38 -8q-44 0 -70 23q-14 13 -22.5 31t-8.5 39q0 29 17.5 48.5t65.5 36.5z" />
    <glyph glyph-name="acircumflex" unicode="&#xe2;" horiz-adv-x="404" 
d="M213 553q-11 13 -15 13q-3 0 -14 -13l-90 -106q-13 0 -16 11l102 181q8 14 18 14q11 0 19 -14l102 -181q-3 -11 -16 -11zM112 91q0 -6 2.5 -16.5t9.5 -20t19.5 -16.5t31.5 -7q15 0 34 8.5t27 16.5q9 9 11 20t2 27l2 59q0 8 -2.5 10.5t-7.5 2.5t-16 -2.5t-25 -7.5
q-45 -15 -66.5 -30t-21.5 -44zM237 207q11 4 13.5 11t3.5 18l1 46q0 14 -2.5 29.5t-10.5 28t-22.5 21t-37.5 8.5q-21 0 -41.5 -11t-22.5 -34q-1 -12 -2.5 -20.5t-7.5 -13.5q-11 -9 -28.5 -14t-28.5 -5q-14 0 -14 14q0 19 19 41t47 40t60.5 30t59.5 12q54 0 80 -30t24 -87
l-6 -174q-2 -35 7.5 -61t38.5 -26q8 0 14 2t11 4q4 2 7.5 4.5t5.5 2.5q7 0 7 -13q0 -2 -6 -9t-17.5 -15t-27 -14t-33.5 -6t-35 7t-30 24q-3 5 -7 9.5t-9 4.5t-14.5 -6t-24.5 -14q-17 -9 -34 -17t-38 -8q-44 0 -70 23q-14 13 -22.5 31t-8.5 39q0 29 17.5 48.5t65.5 36.5z" />
    <glyph glyph-name="atilde" unicode="&#xe3;" horiz-adv-x="404" 
d="M255 563q16 0 27 2t19.5 7t16 13.5t17.5 22.5q11 8 18 -4q-5 -18 -16.5 -40.5t-22.5 -33.5t-22.5 -14.5t-28.5 -3.5h-107q-35 0 -52.5 -14t-33.5 -43q-5 -2 -10 -1t-7 6q1 7 5 18.5t9 23.5t11.5 23.5t12.5 17.5q12 14 25 17t32 3h107zM112 91q0 -6 2.5 -16.5t9.5 -20
t19.5 -16.5t31.5 -7q15 0 34 8.5t27 16.5q9 9 11 20t2 27l2 59q0 8 -2.5 10.5t-7.5 2.5t-16 -2.5t-25 -7.5q-45 -15 -66.5 -30t-21.5 -44zM237 207q11 4 13.5 11t3.5 18l1 46q0 14 -2.5 29.5t-10.5 28t-22.5 21t-37.5 8.5q-21 0 -41.5 -11t-22.5 -34q-1 -12 -2.5 -20.5
t-7.5 -13.5q-11 -9 -28.5 -14t-28.5 -5q-14 0 -14 14q0 19 19 41t47 40t60.5 30t59.5 12q54 0 80 -30t24 -87l-6 -174q-2 -35 7.5 -61t38.5 -26q8 0 14 2t11 4q4 2 7.5 4.5t5.5 2.5q7 0 7 -13q0 -2 -6 -9t-17.5 -15t-27 -14t-33.5 -6t-35 7t-30 24q-3 5 -7 9.5t-9 4.5
t-14.5 -6t-24.5 -14q-17 -9 -34 -17t-38 -8q-44 0 -70 23q-14 13 -22.5 31t-8.5 39q0 29 17.5 48.5t65.5 36.5z" />
    <glyph glyph-name="adieresis" unicode="&#xe4;" horiz-adv-x="404" 
d="M297 483q-20 0 -34 11.5t-14 34.5q-1 20 13 34t35 14q20 0 32.5 -14t12.5 -31q0 -22 -12.5 -35.5t-32.5 -13.5zM109 483q-20 0 -33.5 11.5t-13.5 34.5q-2 20 12 34t35 14q20 0 33 -14t13 -31q0 -22 -13 -35.5t-33 -13.5zM112 91q0 -6 2.5 -16.5t9.5 -20t19.5 -16.5
t31.5 -7q15 0 34 8.5t27 16.5q9 9 11 20t2 27l2 59q0 8 -2.5 10.5t-7.5 2.5t-16 -2.5t-25 -7.5q-45 -15 -66.5 -30t-21.5 -44zM237 207q11 4 13.5 11t3.5 18l1 46q0 14 -2.5 29.5t-10.5 28t-22.5 21t-37.5 8.5q-21 0 -41.5 -11t-22.5 -34q-1 -12 -2.5 -20.5t-7.5 -13.5
q-11 -9 -28.5 -14t-28.5 -5q-14 0 -14 14q0 19 19 41t47 40t60.5 30t59.5 12q54 0 80 -30t24 -87l-6 -174q-2 -35 7.5 -61t38.5 -26q8 0 14 2t11 4q4 2 7.5 4.5t5.5 2.5q7 0 7 -13q0 -2 -6 -9t-17.5 -15t-27 -14t-33.5 -6t-35 7t-30 24q-3 5 -7 9.5t-9 4.5t-14.5 -6
t-24.5 -14q-17 -9 -34 -17t-38 -8q-44 0 -70 23q-14 13 -22.5 31t-8.5 39q0 29 17.5 48.5t65.5 36.5z" />
    <glyph glyph-name="aring" unicode="&#xe5;" horiz-adv-x="404" 
d="M149 556q0 -27 15 -44.5t38 -17.5t38 17.5t15 44.5q0 26 -15 44t-38 18t-38 -18t-15 -44zM202 651q45 0 72.5 -28.5t27.5 -66.5t-27.5 -66.5t-72.5 -28.5t-72.5 28.5t-27.5 66.5t27.5 66.5t72.5 28.5zM112 91q0 -6 2.5 -16.5t9.5 -20t19.5 -16.5t31.5 -7q15 0 34 8.5
t27 16.5q9 9 11 20t2 27l2 59q0 8 -2.5 10.5t-7.5 2.5t-16 -2.5t-25 -7.5q-45 -15 -66.5 -30t-21.5 -44zM237 207q11 4 13.5 11t3.5 18l1 46q0 14 -2.5 29.5t-10.5 28t-22.5 21t-37.5 8.5q-21 0 -41.5 -11t-22.5 -34q-1 -12 -2.5 -20.5t-7.5 -13.5q-11 -9 -28.5 -14
t-28.5 -5q-14 0 -14 14q0 19 19 41t47 40t60.5 30t59.5 12q54 0 80 -30t24 -87l-6 -174q-2 -35 7.5 -61t38.5 -26q8 0 14 2t11 4q4 2 7.5 4.5t5.5 2.5q7 0 7 -13q0 -2 -6 -9t-17.5 -15t-27 -14t-33.5 -6t-35 7t-30 24q-3 5 -7 9.5t-9 4.5t-14.5 -6t-24.5 -14q-17 -9 -34 -17
t-38 -8q-44 0 -70 23q-14 13 -22.5 31t-8.5 39q0 29 17.5 48.5t65.5 36.5z" />
    <glyph glyph-name="ae" unicode="&#xe6;" horiz-adv-x="585" 
d="M442 278q24 8 34 14.5t10 22.5q0 27 -22 45t-51 18q-23 0 -42 -11t-32.5 -28.5t-20.5 -39.5t-7 -45q0 -11 3 -14t15 1zM243 272q0 18 -1.5 36.5t-8 33t-20 23.5t-38.5 9q-31 0 -44 -16.5t-15 -31.5q-1 -9 -3 -17.5t-8 -13.5q-8 -6 -25 -12.5t-31 -6.5q-12 0 -12 14
q0 17 15.5 37t37.5 36q20 14 50 29.5t74 15.5q34 0 55.5 -15t31.5 -41q23 22 56.5 39t80.5 17q25 0 48.5 -7.5t41.5 -21t29 -32.5t11 -41q0 -20 -18 -26l-221 -71q-11 -4 -14.5 -8t-3.5 -15v-24q0 -61 34.5 -92t89.5 -31q31 0 57.5 12t58.5 51q6 3 12 -2t5 -10
q-31 -57 -72.5 -80.5t-97.5 -23.5q-50 0 -83 19.5t-51 45.5l-41 -28q-29 -20 -51.5 -28.5t-50.5 -8.5q-35 0 -60.5 24.5t-25.5 63.5q0 35 24 58t55 34l106 40q15 5 19 9t4 16v41zM243 163q0 12 -5 14t-17 -2l-44 -15q-66 -23 -66 -74q0 -25 15.5 -40t38.5 -15q21 0 37 10
t24 18q17 18 17 51v53z" />
    <glyph glyph-name="ccedilla" unicode="&#xe7;" horiz-adv-x="401" 
d="M234 -14h-3q-40 0 -75.5 12.5t-61.5 38.5t-42 62.5t-16 85.5q0 40 14.5 80t44.5 72t75.5 51.5t107.5 19.5q17 0 43 -4t46 -13q6 -5 10.5 -16t4.5 -24q0 -14 -6.5 -25.5t-15.5 -11.5q-8 0 -14 7q-17 20 -43 36.5t-57 16.5q-26 0 -51 -10.5t-44.5 -30.5t-31 -50t-11.5 -70
q0 -29 10 -59.5t30.5 -55.5t50.5 -40.5t70 -15.5q44 0 69 17t42 43q6 2 11.5 -2.5t6.5 -11.5q-20 -43 -54.5 -66t-70.5 -31l-22 -29q-4 -6 -2.5 -12t11.5 -11q20 -14 33 -31.5t13 -40.5q0 -19 -9 -35t-23.5 -28t-33.5 -18.5t-38 -6.5q-28 0 -43 10t-15 25q0 8 6.5 17t18.5 9
q7 0 14.5 -4.5t14 -10t13 -10t11.5 -4.5q9 0 18 7t9 24q0 20 -18.5 38t-44.5 29v6z" />
    <glyph glyph-name="egrave" unicode="&#xe8;" horiz-adv-x="396" 
d="M248 454q-2 -14 -16 -12l-129 135q-17 17 -17 30q0 12 18 27q17 15 31 13q5 -1 11 -7.5t11 -16.5zM192 286q55 0 76.5 2.5t27.5 7.5q2 2 4 5.5t2 13.5t-4 21.5t-13 20.5t-23.5 15t-36.5 6t-42 -9t-35 -22t-24.5 -28.5t-9.5 -27.5q0 -2 1 -3.5t6 -1.5h71zM130 256
q-20 0 -23.5 -4t-3.5 -23q0 -38 11 -72t32 -59.5t52 -40.5t71 -15q25 0 47 10t45 39q8 2 12.5 -1.5t5.5 -10.5q-12 -26 -31 -43.5t-40.5 -28.5t-44 -16t-41.5 -5q-49 0 -86 18.5t-59 47.5q-23 29 -32.5 63t-9.5 67q0 46 14.5 87t41 72t63.5 49t82 18q32 0 58.5 -10t45 -27
t28.5 -38.5t10 -43.5q0 -11 -1 -17t-3 -9q-2 -5 -14.5 -6t-44.5 -1h-185z" />
    <glyph glyph-name="eacute" unicode="&#xe9;" horiz-adv-x="396" 
d="M215 442q-14 -2 -16 12l91 169q5 10 11 16.5t11 7.5q14 2 31 -13q18 -15 18 -27q0 -13 -17 -30zM192 286q55 0 76.5 2.5t27.5 7.5q2 2 4 5.5t2 13.5t-4 21.5t-13 20.5t-23.5 15t-36.5 6t-42 -9t-35 -22t-24.5 -28.5t-9.5 -27.5q0 -2 1 -3.5t6 -1.5h71zM130 256
q-20 0 -23.5 -4t-3.5 -23q0 -38 11 -72t32 -59.5t52 -40.5t71 -15q25 0 47 10t45 39q8 2 12.5 -1.5t5.5 -10.5q-12 -26 -31 -43.5t-40.5 -28.5t-44 -16t-41.5 -5q-49 0 -86 18.5t-59 47.5q-23 29 -32.5 63t-9.5 67q0 46 14.5 87t41 72t63.5 49t82 18q32 0 58.5 -10t45 -27
t28.5 -38.5t10 -43.5q0 -11 -1 -17t-3 -9q-2 -5 -14.5 -6t-44.5 -1h-185z" />
    <glyph glyph-name="ecircumflex" unicode="&#xea;" horiz-adv-x="396" 
d="M233 553q-11 13 -15 13q-3 0 -14 -13l-90 -106q-13 0 -16 11l102 181q8 14 18 14q11 0 19 -14l102 -181q-3 -11 -16 -11zM192 286q55 0 76.5 2.5t27.5 7.5q2 2 4 5.5t2 13.5t-4 21.5t-13 20.5t-23.5 15t-36.5 6t-42 -9t-35 -22t-24.5 -28.5t-9.5 -27.5q0 -2 1 -3.5
t6 -1.5h71zM130 256q-20 0 -23.5 -4t-3.5 -23q0 -38 11 -72t32 -59.5t52 -40.5t71 -15q25 0 47 10t45 39q8 2 12.5 -1.5t5.5 -10.5q-12 -26 -31 -43.5t-40.5 -28.5t-44 -16t-41.5 -5q-49 0 -86 18.5t-59 47.5q-23 29 -32.5 63t-9.5 67q0 46 14.5 87t41 72t63.5 49t82 18
q32 0 58.5 -10t45 -27t28.5 -38.5t10 -43.5q0 -11 -1 -17t-3 -9q-2 -5 -14.5 -6t-44.5 -1h-185z" />
    <glyph glyph-name="edieresis" unicode="&#xeb;" horiz-adv-x="396" 
d="M313 483q-20 0 -34 11.5t-14 34.5q-1 20 13 34t35 14q20 0 32.5 -14t12.5 -31q0 -22 -12.5 -35.5t-32.5 -13.5zM125 483q-20 0 -33.5 11.5t-13.5 34.5q-2 20 12 34t35 14q20 0 33 -14t13 -31q0 -22 -13 -35.5t-33 -13.5zM192 286q55 0 76.5 2.5t27.5 7.5q2 2 4 5.5
t2 13.5t-4 21.5t-13 20.5t-23.5 15t-36.5 6t-42 -9t-35 -22t-24.5 -28.5t-9.5 -27.5q0 -2 1 -3.5t6 -1.5h71zM130 256q-20 0 -23.5 -4t-3.5 -23q0 -38 11 -72t32 -59.5t52 -40.5t71 -15q25 0 47 10t45 39q8 2 12.5 -1.5t5.5 -10.5q-12 -26 -31 -43.5t-40.5 -28.5t-44 -16
t-41.5 -5q-49 0 -86 18.5t-59 47.5q-23 29 -32.5 63t-9.5 67q0 46 14.5 87t41 72t63.5 49t82 18q32 0 58.5 -10t45 -27t28.5 -38.5t10 -43.5q0 -11 -1 -17t-3 -9q-2 -5 -14.5 -6t-44.5 -1h-185z" />
    <glyph glyph-name="igrave" unicode="&#xec;" horiz-adv-x="257" 
d="M160 454q-2 -14 -16 -12l-129 135q-17 17 -17 30q0 12 18 27q17 15 31 13q5 -1 11 -7.5t11 -16.5zM98 287q0 15 -0.5 24t-3 15t-8 11t-15.5 12l-9 6q-3 3 -3 9q0 7 4 9q9 3 22.5 9t28.5 13t29 14t23 13q8 0 10 -6q-2 -26 -3 -59.5t-1 -64.5v-180q0 -27 1 -43.5t4.5 -25.5
t11 -12.5t21.5 -5.5l21 -3q5 -4 4 -13.5t-6 -11.5q-23 2 -45.5 2.5t-48.5 0.5q-52 0 -94 -3q-5 2 -6 11.5t4 13.5l21 3q14 2 21.5 5.5t11.5 12.5t4.5 25.5t0.5 43.5v175z" />
    <glyph glyph-name="iacute" unicode="&#xed;" horiz-adv-x="257" 
d="M117 442q-14 -2 -16 12l91 169q5 10 11 16.5t11 7.5q14 2 31 -13q18 -15 18 -27q0 -13 -17 -30zM98 287q0 15 -0.5 24t-3 15t-8 11t-15.5 12l-9 6q-3 3 -3 9q0 7 4 9q9 3 22.5 9t28.5 13t29 14t23 13q8 0 10 -6q-2 -26 -3 -59.5t-1 -64.5v-180q0 -27 1 -43.5t4.5 -25.5
t11 -12.5t21.5 -5.5l21 -3q5 -4 4 -13.5t-6 -11.5q-23 2 -45.5 2.5t-48.5 0.5q-52 0 -94 -3q-5 2 -6 11.5t4 13.5l21 3q14 2 21.5 5.5t11.5 12.5t4.5 25.5t0.5 43.5v175z" />
    <glyph glyph-name="icircumflex" unicode="&#xee;" horiz-adv-x="257" 
d="M151 553q-11 13 -15 13q-3 0 -14 -13l-90 -106q-13 0 -16 11l102 181q8 14 18 14q11 0 19 -14l102 -181q-3 -11 -16 -11zM98 287q0 15 -0.5 24t-3 15t-8 11t-15.5 12l-9 6q-3 3 -3 9q0 7 4 9q9 3 22.5 9t28.5 13t29 14t23 13q8 0 10 -6q-2 -26 -3 -59.5t-1 -64.5v-180
q0 -27 1 -43.5t4.5 -25.5t11 -12.5t21.5 -5.5l21 -3q5 -4 4 -13.5t-6 -11.5q-23 2 -45.5 2.5t-48.5 0.5q-52 0 -94 -3q-5 2 -6 11.5t4 13.5l21 3q14 2 21.5 5.5t11.5 12.5t4.5 25.5t0.5 43.5v175z" />
    <glyph glyph-name="idieresis" unicode="&#xef;" horiz-adv-x="257" 
d="M224 483q-20 0 -34 11.5t-14 34.5q-1 20 13 34t35 14q20 0 32.5 -14t12.5 -31q0 -22 -12.5 -35.5t-32.5 -13.5zM36 483q-20 0 -33.5 11.5t-13.5 34.5q-2 20 12 34t35 14q20 0 33 -14t13 -31q0 -22 -13 -35.5t-33 -13.5zM98 287q0 15 -0.5 24t-3 15t-8 11t-15.5 12l-9 6
q-3 3 -3 9q0 7 4 9q9 3 22.5 9t28.5 13t29 14t23 13q8 0 10 -6q-2 -26 -3 -59.5t-1 -64.5v-180q0 -27 1 -43.5t4.5 -25.5t11 -12.5t21.5 -5.5l21 -3q5 -4 4 -13.5t-6 -11.5q-23 2 -45.5 2.5t-48.5 0.5q-52 0 -94 -3q-5 2 -6 11.5t4 13.5l21 3q14 2 21.5 5.5t11.5 12.5
t4.5 25.5t0.5 43.5v175z" />
    <glyph glyph-name="eth" unicode="&#xf0;" horiz-adv-x="484" 
d="M332 578q31 -33 53 -72.5t36.5 -81.5t21 -85t6.5 -84q0 -125 -55 -197t-160 -72q-42 0 -78.5 13.5t-63 40t-42 64.5t-15.5 86q0 45 18 85t48 69.5t69.5 46.5t83.5 17q17 0 44 -3.5t53 -17.5q-8 38 -26.5 82t-47.5 80l-131 -68q-9 4 -13 13t-1 20l124 65
q-17 19 -38.5 38.5t-46 35t-51 26t-53.5 13.5q-4 5 -3 12t6 11q65 -3 128 -33.5t110 -75.5l112 58q11 -2 15.5 -11.5t0.5 -20.5zM121 204q0 -32 7.5 -65.5t22.5 -60.5t38.5 -44.5t56.5 -17.5q34 0 58 16.5t38 43.5t20.5 61t6.5 69q0 49 -6 79.5t-17 50.5q-13 24 -40 33
t-56 9q-28 0 -51.5 -12.5t-41 -35.5t-27 -55t-9.5 -71z" />
    <glyph glyph-name="ntilde" unicode="&#xf1;" horiz-adv-x="525" 
d="M315 563q16 0 27 2t19.5 7t16 13.5t17.5 22.5q11 8 18 -4q-5 -18 -16.5 -40.5t-22.5 -33.5t-22.5 -14.5t-28.5 -3.5h-107q-35 0 -52.5 -14t-33.5 -43q-5 -2 -10 -1t-7 6q1 7 5 18.5t9 23.5t11.5 23.5t12.5 17.5q12 14 25 17t32 3h107zM98 287q0 15 -0.5 24t-3 15t-8 11
t-15.5 12l-9 6q-3 3 -3 9q0 7 4 9q9 3 22.5 9t28.5 13t28 14t21 13q8 0 11 -7q-2 -17 -2 -29v-18q0 -11 11 -11q32 20 67 35.5t73 15.5q31 0 53 -10t36.5 -27t21 -39.5t6.5 -47.5v-172q0 -27 1 -43.5t4.5 -25.5t11 -12.5t21.5 -5.5l22 -3q5 -4 4 -13.5t-6 -11.5
q-23 2 -45.5 2.5t-48.5 0.5q-53 0 -93 -3q-5 2 -6 11.5t4 13.5l19 3q14 2 21.5 6t11.5 13t4.5 25t0.5 43v149q0 43 -21.5 71t-72.5 28q-29 0 -51.5 -10.5t-33.5 -24.5q-10 -13 -12.5 -25.5t-2.5 -34.5v-153q0 -27 1 -43t4.5 -25t11 -13t21.5 -6l18 -3q5 -4 4 -13.5t-6 -11.5
q-41 3 -91 3q-52 0 -94 -3q-5 2 -6 11.5t4 13.5l21 3q14 2 21.5 5.5t11.5 12.5t4.5 25.5t0.5 43.5v175z" />
    <glyph glyph-name="ograve" unicode="&#xf2;" horiz-adv-x="486" 
d="M264 454q-2 -14 -16 -12l-129 135q-17 17 -17 30q0 12 18 27q17 15 31 13q5 -1 11 -7.5t11 -16.5zM365 185q0 32 -7 66t-22 62.5t-39.5 46.5t-60.5 18q-50 0 -82.5 -45t-32.5 -128q0 -34 8 -68t23.5 -61t40 -43.5t57.5 -16.5t55 15.5t35.5 40t19 54.5t5.5 59zM248 408
q42 0 79 -15t64.5 -42.5t43.5 -65.5t16 -84q0 -47 -15.5 -86.5t-43 -68t-66.5 -44.5t-86 -16q-43 0 -80.5 14.5t-65 41.5t-43.5 65t-16 85t16.5 87t45.5 68.5t68 44.5t83 16z" />
    <glyph glyph-name="oacute" unicode="&#xf3;" horiz-adv-x="486" 
d="M231 442q-14 -2 -16 12l91 169q5 10 11 16.5t11 7.5q14 2 31 -13q18 -15 18 -27q0 -13 -17 -30zM365 185q0 32 -7 66t-22 62.5t-39.5 46.5t-60.5 18q-50 0 -82.5 -45t-32.5 -128q0 -34 8 -68t23.5 -61t40 -43.5t57.5 -16.5t55 15.5t35.5 40t19 54.5t5.5 59zM248 408
q42 0 79 -15t64.5 -42.5t43.5 -65.5t16 -84q0 -47 -15.5 -86.5t-43 -68t-66.5 -44.5t-86 -16q-43 0 -80.5 14.5t-65 41.5t-43.5 65t-16 85t16.5 87t45.5 68.5t68 44.5t83 16z" />
    <glyph glyph-name="ocircumflex" unicode="&#xf4;" horiz-adv-x="486" 
d="M258 553q-11 13 -15 13q-3 0 -14 -13l-90 -106q-13 0 -16 11l102 181q8 14 18 14q11 0 19 -14l102 -181q-3 -11 -16 -11zM365 185q0 32 -7 66t-22 62.5t-39.5 46.5t-60.5 18q-50 0 -82.5 -45t-32.5 -128q0 -34 8 -68t23.5 -61t40 -43.5t57.5 -16.5t55 15.5t35.5 40
t19 54.5t5.5 59zM248 408q42 0 79 -15t64.5 -42.5t43.5 -65.5t16 -84q0 -47 -15.5 -86.5t-43 -68t-66.5 -44.5t-86 -16q-43 0 -80.5 14.5t-65 41.5t-43.5 65t-16 85t16.5 87t45.5 68.5t68 44.5t83 16z" />
    <glyph glyph-name="otilde" unicode="&#xf5;" horiz-adv-x="486" 
d="M295 563q16 0 27 2t19.5 7t16 13.5t17.5 22.5q11 8 18 -4q-5 -18 -16.5 -40.5t-22.5 -33.5t-22.5 -14.5t-28.5 -3.5h-107q-35 0 -52.5 -14t-33.5 -43q-5 -2 -10 -1t-7 6q1 7 5 18.5t9 23.5t11.5 23.5t12.5 17.5q12 14 25 17t32 3h107zM365 185q0 32 -7 66t-22 62.5
t-39.5 46.5t-60.5 18q-50 0 -82.5 -45t-32.5 -128q0 -34 8 -68t23.5 -61t40 -43.5t57.5 -16.5t55 15.5t35.5 40t19 54.5t5.5 59zM248 408q42 0 79 -15t64.5 -42.5t43.5 -65.5t16 -84q0 -47 -15.5 -86.5t-43 -68t-66.5 -44.5t-86 -16q-43 0 -80.5 14.5t-65 41.5t-43.5 65
t-16 85t16.5 87t45.5 68.5t68 44.5t83 16z" />
    <glyph glyph-name="odieresis" unicode="&#xf6;" horiz-adv-x="486" 
d="M338 483q-20 0 -34 11.5t-14 34.5q-1 20 13 34t35 14q20 0 32.5 -14t12.5 -31q0 -22 -12.5 -35.5t-32.5 -13.5zM150 483q-20 0 -33.5 11.5t-13.5 34.5q-2 20 12 34t35 14q20 0 33 -14t13 -31q0 -22 -13 -35.5t-33 -13.5zM365 185q0 32 -7 66t-22 62.5t-39.5 46.5
t-60.5 18q-50 0 -82.5 -45t-32.5 -128q0 -34 8 -68t23.5 -61t40 -43.5t57.5 -16.5t55 15.5t35.5 40t19 54.5t5.5 59zM248 408q42 0 79 -15t64.5 -42.5t43.5 -65.5t16 -84q0 -47 -15.5 -86.5t-43 -68t-66.5 -44.5t-86 -16q-43 0 -80.5 14.5t-65 41.5t-43.5 65t-16 85t16.5 87
t45.5 68.5t68 44.5t83 16z" />
    <glyph glyph-name="divide" unicode="&#xf7;" 
d="M443 181h-385v49h385v-49zM248 283q-19 0 -32 13t-13 32q0 18 13 31t32 13q17 0 30.5 -13t13.5 -31q0 -19 -13.5 -32t-30.5 -13zM248 128q17 0 30.5 -13t13.5 -31q0 -19 -13.5 -32t-30.5 -13q-19 0 -32 13t-13 32q0 18 13 31t32 13z" />
    <glyph glyph-name="oslash" unicode="&#xf8;" horiz-adv-x="486" 
d="M376 364q35 -27 55 -68.5t20 -94.5q0 -47 -15.5 -86.5t-43 -68t-66.5 -44.5t-86 -16q-61 0 -107 28l-37 -55q-10 -1 -17 5.5t-9 16.5l36 52q-33 26 -52 66.5t-19 92.5q0 47 16.5 87t45.5 68.5t68 44.5t83 16q55 0 100 -25l34 49q9 1 18 -5t10 -14zM163 58q17 -20 38 -31
t49 -11q34 0 57 15.5t36.5 40t19 54.5t5.5 59q0 32 -6.5 65t-21.5 62zM319 341q-16 17 -36.5 27t-46.5 10q-52 0 -85 -45t-33 -128q0 -31 6 -61.5t20 -55.5z" />
    <glyph glyph-name="ugrave" unicode="&#xf9;" horiz-adv-x="512" 
d="M274 454q-2 -14 -16 -12l-129 135q-17 17 -17 30q0 12 18 27q17 15 31 13q5 -1 11 -7.5t11 -16.5zM159 147q0 -26 4 -47t14 -36t28 -23.5t47 -8.5q20 0 42 8t39 22q10 9 15 22t5 36v164q0 24 -1.5 38t-5.5 21.5t-11.5 11t-18.5 8.5l-13 5q-5 3 -5 11t6 11q15 0 32 1.5
t33 4t30 5.5t22 7q8 -2 9 -7q-3 -29 -3 -87v-168q0 -60 5 -84.5t26 -24.5q16 0 39 5q5 -4 5 -15t-6 -14l-32.5 -6.5t-35 -8t-34 -10t-29.5 -12.5q-9 0 -12 7v41q0 14 -9 14q-11 -7 -26 -16t-32.5 -17t-37.5 -13.5t-42 -5.5q-66 0 -93.5 32t-27.5 93v167q0 24 -0.5 38
t-3.5 23t-9 14t-17 10l-12 5q-5 4 -4 12t6 10q35 1 62.5 6.5t44.5 11.5q9 -1 10 -7q-2 -13 -2.5 -31.5t-0.5 -55.5v-167z" />
    <glyph glyph-name="uacute" unicode="&#xfa;" horiz-adv-x="512" 
d="M244 442q-14 -2 -16 12l91 169q5 10 11 16.5t11 7.5q14 2 31 -13q18 -15 18 -27q0 -13 -17 -30zM159 147q0 -26 4 -47t14 -36t28 -23.5t47 -8.5q20 0 42 8t39 22q10 9 15 22t5 36v164q0 24 -1.5 38t-5.5 21.5t-11.5 11t-18.5 8.5l-13 5q-5 3 -5 11t6 11q15 0 32 1.5t33 4
t30 5.5t22 7q8 -2 9 -7q-3 -29 -3 -87v-168q0 -60 5 -84.5t26 -24.5q16 0 39 5q5 -4 5 -15t-6 -14l-32.5 -6.5t-35 -8t-34 -10t-29.5 -12.5q-9 0 -12 7v41q0 14 -9 14q-11 -7 -26 -16t-32.5 -17t-37.5 -13.5t-42 -5.5q-66 0 -93.5 32t-27.5 93v167q0 24 -0.5 38t-3.5 23
t-9 14t-17 10l-12 5q-5 4 -4 12t6 10q35 1 62.5 6.5t44.5 11.5q9 -1 10 -7q-2 -13 -2.5 -31.5t-0.5 -55.5v-167z" />
    <glyph glyph-name="ucircumflex" unicode="&#xfb;" horiz-adv-x="512" 
d="M271 553q-11 13 -15 13q-3 0 -14 -13l-90 -106q-13 0 -16 11l102 181q8 14 18 14q11 0 19 -14l102 -181q-3 -11 -16 -11zM159 147q0 -26 4 -47t14 -36t28 -23.5t47 -8.5q20 0 42 8t39 22q10 9 15 22t5 36v164q0 24 -1.5 38t-5.5 21.5t-11.5 11t-18.5 8.5l-13 5
q-5 3 -5 11t6 11q15 0 32 1.5t33 4t30 5.5t22 7q8 -2 9 -7q-3 -29 -3 -87v-168q0 -60 5 -84.5t26 -24.5q16 0 39 5q5 -4 5 -15t-6 -14l-32.5 -6.5t-35 -8t-34 -10t-29.5 -12.5q-9 0 -12 7v41q0 14 -9 14q-11 -7 -26 -16t-32.5 -17t-37.5 -13.5t-42 -5.5q-66 0 -93.5 32
t-27.5 93v167q0 24 -0.5 38t-3.5 23t-9 14t-17 10l-12 5q-5 4 -4 12t6 10q35 1 62.5 6.5t44.5 11.5q9 -1 10 -7q-2 -13 -2.5 -31.5t-0.5 -55.5v-167z" />
    <glyph glyph-name="udieresis" unicode="&#xfc;" horiz-adv-x="512" 
d="M351 483q-20 0 -34 11.5t-14 34.5q-1 20 13 34t35 14q20 0 32.5 -14t12.5 -31q0 -22 -12.5 -35.5t-32.5 -13.5zM163 483q-20 0 -33.5 11.5t-13.5 34.5q-2 20 12 34t35 14q20 0 33 -14t13 -31q0 -22 -13 -35.5t-33 -13.5zM159 147q0 -26 4 -47t14 -36t28 -23.5t47 -8.5
q20 0 42 8t39 22q10 9 15 22t5 36v164q0 24 -1.5 38t-5.5 21.5t-11.5 11t-18.5 8.5l-13 5q-5 3 -5 11t6 11q15 0 32 1.5t33 4t30 5.5t22 7q8 -2 9 -7q-3 -29 -3 -87v-168q0 -60 5 -84.5t26 -24.5q16 0 39 5q5 -4 5 -15t-6 -14l-32.5 -6.5t-35 -8t-34 -10t-29.5 -12.5
q-9 0 -12 7v41q0 14 -9 14q-11 -7 -26 -16t-32.5 -17t-37.5 -13.5t-42 -5.5q-66 0 -93.5 32t-27.5 93v167q0 24 -0.5 38t-3.5 23t-9 14t-17 10l-12 5q-5 4 -4 12t6 10q35 1 62.5 6.5t44.5 11.5q9 -1 10 -7q-2 -13 -2.5 -31.5t-0.5 -55.5v-167z" />
    <glyph glyph-name="yacute" unicode="&#xfd;" horiz-adv-x="438" 
d="M244 442q-14 -2 -16 12l91 169q5 10 11 16.5t11 7.5q14 2 31 -13q18 -15 18 -27q0 -13 -17 -30zM68 -249q-22 0 -33 12t-11 31q0 20 11.5 30t28.5 10h19q22 0 33 18q22 34 36.5 63.5t21.5 47.5q2 6 6 19t4 24q0 15 -3.5 28t-13.5 41l-78 214q-6 18 -11.5 31t-11.5 23
t-14.5 15.5t-21.5 8.5l-25 5q-5 4 -4 13.5t7 11.5q48 -3 95 -3q39 0 87 3q6 -2 6.5 -11.5t-4.5 -13.5l-25 -5q-22 -5 -22 -13q0 -5 3.5 -17.5t8.5 -27.5t10 -29t7 -20l32 -92q2 -6 6.5 -17.5l9 -23t8 -20.5t5.5 -10q2 2 12.5 22.5t24.5 51.5l34 79q17 39 26 65.5t9 34.5
q0 5 -5 10t-19 7l-31 5q-5 4 -4.5 13.5t6.5 11.5q48 -3 88 -3q19 0 37 0.5t39 2.5q6 -3 6.5 -11.5t-4.5 -13.5l-17 -3q-12 -2 -22 -9t-20 -19.5t-20 -31.5t-23 -46l-56 -115q-12 -25 -32.5 -67.5t-43.5 -91.5t-46.5 -99.5t-41.5 -91.5q-13 -29 -30 -38t-34 -9z" />
    <glyph glyph-name="thorn" unicode="&#xfe;" horiz-adv-x="499" 
d="M151 101q0 -23 7.5 -34.5t23.5 -23.5q15 -12 35 -18t40 -6q29 0 52.5 13.5t40 36.5t25 55t8.5 68q0 33 -8.5 63t-25.5 53.5t-42 37.5t-59 14q-32 0 -54.5 -9.5t-30.5 -18.5q-7 -8 -9.5 -21t-2.5 -38v-172zM151 -143q0 -27 1 -43t4.5 -24.5t11 -12t21.5 -5.5l39 -5
q5 -4 4 -13.5t-6 -11.5q-36 2 -61 2.5t-51 0.5q-52 0 -94 -3q-5 2 -6 11.5t4 13.5l21 3q14 2 21.5 5.5t11.5 12.5t4.5 25.5t0.5 43.5v687q0 22 -0.5 35.5t-3.5 21.5t-9.5 13.5t-17.5 12.5l-10 6q-4 2 -4 10t4 10q9 3 21.5 7.5t27.5 9.5t30.5 11t29.5 14q7 0 10 -6
q-2 -26 -3 -58.5t-1 -65.5v-191q0 -13 7 -13q5 2 18.5 9.5t32.5 16t42 15t47 6.5q38 0 68.5 -14.5t52.5 -39t33.5 -57t11.5 -69.5q0 -53 -18 -97.5t-50.5 -76.5t-76.5 -50t-96 -18q-16 0 -33.5 1t-24.5 3q-7 -2 -10.5 -7t-3.5 -21v-105z" />
    <glyph glyph-name="ydieresis" unicode="&#xff;" horiz-adv-x="438" 
d="M334 483q-20 0 -34 11.5t-14 34.5q-1 20 13 34t35 14q20 0 32.5 -14t12.5 -31q0 -22 -12.5 -35.5t-32.5 -13.5zM146 483q-20 0 -33.5 11.5t-13.5 34.5q-2 20 12 34t35 14q20 0 33 -14t13 -31q0 -22 -13 -35.5t-33 -13.5zM68 -249q-22 0 -33 12t-11 31q0 20 11.5 30
t28.5 10h19q22 0 33 18q22 34 36.5 63.5t21.5 47.5q2 6 6 19t4 24q0 15 -3.5 28t-13.5 41l-78 214q-6 18 -11.5 31t-11.5 23t-14.5 15.5t-21.5 8.5l-25 5q-5 4 -4 13.5t7 11.5q48 -3 95 -3q39 0 87 3q6 -2 6.5 -11.5t-4.5 -13.5l-25 -5q-22 -5 -22 -13q0 -5 3.5 -17.5
t8.5 -27.5t10 -29t7 -20l32 -92q2 -6 6.5 -17.5l9 -23t8 -20.5t5.5 -10q2 2 12.5 22.5t24.5 51.5l34 79q17 39 26 65.5t9 34.5q0 5 -5 10t-19 7l-31 5q-5 4 -4.5 13.5t6.5 11.5q48 -3 88 -3q19 0 37 0.5t39 2.5q6 -3 6.5 -11.5t-4.5 -13.5l-17 -3q-12 -2 -22 -9t-20 -19.5
t-20 -31.5t-23 -46l-56 -115q-12 -25 -32.5 -67.5t-43.5 -91.5t-46.5 -99.5t-41.5 -91.5q-13 -29 -30 -38t-34 -9z" />
    <glyph glyph-name="OE" unicode="&#x152;" horiz-adv-x="1012" 
d="M557 548q0 37 -7 52t-19 20q-20 7 -42 9.5t-54 2.5q-81 0 -136 -24.5t-89 -66t-49 -96.5t-15 -116q0 -26 4.5 -58.5t16.5 -66t33 -66t54 -57.5t78.5 -40.5t107.5 -15.5q26 0 49 4t38 11q19 11 24.5 29.5t5.5 53.5v425zM788 660q48 0 86.5 0.5t48.5 2.5q2 -6 4 -21.5
t4 -34.5t3.5 -39.5t3.5 -36.5q-3 -5 -11.5 -6.5t-13.5 3.5l-11 33t-13 27.5t-20.5 21.5t-31.5 14q-16 3 -39.5 4t-57.5 1h-72q-11 0 -17 -1t-8.5 -5t-3 -12t-0.5 -22v-201q0 -20 5 -23.5t27 -3.5h58q65 0 85 5q9 3 14.5 9.5t9.5 26.5l9 40q4 5 13 4.5t12 -5.5
q0 -17 -2 -44.5t-2 -55.5t2 -54t2 -43q-3 -5 -12 -5.5t-13 4.5l-10 40q-3 13 -9.5 23t-21.5 15q-10 3 -29 4t-48 1h-58q-22 0 -27 -3.5t-5 -23.5v-141q0 -41 3.5 -66t15.5 -38q4 -5 11 -9t20.5 -7t35 -5t54.5 -2q29 0 49.5 0.5t35 2.5t24.5 4.5t18 7.5q14 8 32.5 33t38.5 64
q5 4 13.5 2t11.5 -9q-3 -14 -8.5 -33.5t-12 -39.5t-13 -38t-11.5 -28q-34 1 -67 1.5t-67 0.5q-33 1 -67 1h-67h-61q-52 0 -101 -3q-24 -1 -47.5 -2t-48.5 -1q-87 0 -158.5 23.5t-121.5 67t-77.5 104.5t-27.5 136q0 73 28 135t79.5 107t124.5 70.5t162 25.5q45 0 89.5 -1.5
t89.5 -1.5h169z" />
    <glyph glyph-name="oe" unicode="&#x153;" horiz-adv-x="729" 
d="M540 286q46 0 65 2t24 7q2 2 4 6t2 14q0 9 -4 20t-13 20.5t-23.5 16t-36.5 6.5q-21 0 -40.5 -7.5t-34.5 -19.5t-24.5 -27t-9.5 -30q0 -3 4.5 -5.5t23.5 -2.5h63zM462 256q-18 0 -22.5 -7.5t-4.5 -30.5q0 -34 10.5 -66t31.5 -57t51.5 -40t70.5 -15q35 0 54.5 10.5
t40.5 38.5q6 2 12 -1.5t6 -8.5q-23 -52 -65.5 -72.5t-90.5 -20.5q-49 0 -90.5 22t-64.5 60q-27 -42 -70.5 -62t-91.5 -20q-44 0 -81.5 14.5t-64.5 41.5t-42.5 65t-15.5 85t16.5 87t45 68.5t67.5 44.5t84 16q48 0 89.5 -21.5t67.5 -64.5q26 41 69.5 63.5t88.5 22.5
q35 0 62.5 -10t46.5 -27t29 -38.5t10 -43.5q0 -6 -0.5 -13t-2.5 -10q-2 -5 -19 -7.5t-62 -2.5h-165zM121 204q0 -32 8 -65.5t24 -60.5t39.5 -44.5t55.5 -17.5q34 0 56.5 15.5t36 40.5t19 54.5t5.5 58.5q0 31 -7 65.5t-22 62.5t-40 46.5t-61 18.5q-25 0 -46 -12.5t-36 -35.5
t-23.5 -55t-8.5 -71z" />
    <glyph glyph-name="Scaron" unicode="&#x160;" horiz-adv-x="489" 
d="M117 836q0 6 3.5 10.5t10.5 4.5l118 -68q11 -6 16 -6q6 0 17 6l120 68q12 -2 12 -15l-127 -122q-21 -19 -43 0zM437 169q0 -41 -15 -75t-43 -58.5t-67 -38t-88 -13.5q-32 0 -57.5 4t-45 10t-33 12.5t-20.5 10.5q-5 8 -9.5 24.5t-8 36t-6 40.5t-3.5 39q4 5 12.5 6.5
t11.5 -3.5q6 -19 17 -44.5t31 -49t50 -39.5t74 -16q31 0 54.5 9.5t39.5 25.5t23.5 36.5t7.5 43.5q0 16 -2.5 33.5t-11 35.5t-25 35.5t-43.5 35.5l-95 62q-19 12 -38 29t-34.5 38.5t-25.5 47.5t-10 57q0 36 13.5 67t39.5 54.5t64 37t87 13.5q23 0 48 -3.5t45 -9.5
q10 -2 19.5 -4t15.5 -2q3 -9 6.5 -23.5t6 -31t4 -34t1.5 -33.5q-3 -5 -12 -6.5t-13 3.5q-5 18 -13.5 38t-23.5 36.5t-39 27.5t-60 11q-37 0 -60 -11t-36 -27.5t-18 -36t-5 -36.5q0 -22 8 -40.5t20.5 -34t27.5 -27.5t29 -21l80 -50q24 -15 46.5 -33.5t40 -41.5t28 -52
t10.5 -65z" />
    <glyph glyph-name="scaron" unicode="&#x161;" horiz-adv-x="323" 
d="M160 558q11 -13 14 -13q4 0 15 13l90 106q13 0 16 -11l-102 -181q-8 -14 -19 -14q-10 0 -18 14l-102 181q3 11 16 11zM186 408q32 0 56.5 -6t31.5 -12q7 -17 11.5 -39t4.5 -42q-3 -5 -11.5 -6.5t-12.5 3.5q-13 33 -35 53t-53 20q-29 0 -46.5 -17t-17.5 -44q0 -15 7 -27.5
t18.5 -22t25 -18t26.5 -15.5q20 -11 38.5 -23.5t32.5 -28.5t22.5 -36t8.5 -47q0 -29 -12 -50t-32 -35.5t-46 -21.5t-54 -7q-70 0 -107 30q-3 7 -5.5 19t-4 26t-2.5 29t0 27q4 5 11.5 5.5t11.5 -4.5q6 -21 15.5 -39.5t22.5 -32.5t30 -22.5t38 -8.5q27 0 47 16t20 48
q0 17 -7 30.5t-18 24.5t-24.5 20t-27.5 17q-44 25 -71.5 53t-27.5 70q0 27 10.5 48.5t29 36t43 22t53.5 7.5z" />
    <glyph glyph-name="Ydieresis" unicode="&#x178;" horiz-adv-x="574" 
d="M407 707q-22 0 -36.5 12t-14.5 37q-1 22 13.5 37.5t37.5 15.5q22 0 35 -15.5t13 -34.5q0 -23 -13 -37.5t-35 -14.5zM209 707q-22 0 -36 12t-14 37q-2 22 12.5 37.5t37.5 15.5q22 0 35.5 -15.5t13.5 -34.5q0 -23 -13.5 -37.5t-35.5 -14.5zM336 152q0 -40 2 -64.5t8 -38
t18 -18.5t32 -6l38 -3q5 -5 4 -14t-6 -11q-23 1 -41.5 1.5t-34.5 1t-31 0.5h-29q-32 0 -61.5 -0.5t-69.5 -2.5q-5 2 -6 11t4 14l31 3q22 2 34 7t18 18.5t7 37.5t1 64v51q0 21 -1 35t-4 26.5t-9.5 27t-17.5 35.5l-118 230q-13 25 -22.5 39t-18.5 21.5t-18 10.5t-20 5l-28 5
q-5 5 -4 13.5t6 11.5q24 -2 52 -2.5t64 -0.5q69 0 107 3q7 -2 7.5 -11t-4.5 -14l-13 -2q-26 -5 -34 -8.5t-8 -9.5q0 -4 4 -15t9.5 -23.5t10.5 -23.5t7 -15q28 -56 56 -113t57 -109q23 40 47 82.5t47 86.5q10 19 21.5 40.5t21.5 40.5t16 32.5t6 18.5t-12 9.5t-30 6.5l-18 2
q-5 5 -4.5 13.5t6.5 11.5q27 -2 50 -2.5t46 -0.5t45 0.5t48 2.5q6 -4 6.5 -12t-4.5 -13l-28 -5q-20 -3 -36 -16t-31 -34t-30.5 -48.5t-34.5 -59.5l-63 -109q-17 -28 -26.5 -46t-14 -34t-5.5 -34.5t-1 -47.5v-52z" />
    <glyph glyph-name="florin" unicode="&#x192;" 
d="M211 401q8 39 19.5 78t28.5 75q6 11 17 29t29.5 34.5t44.5 28.5t61 12q24 0 42 -5.5t30 -13.5t18 -17.5t6 -17.5q0 -12 -4.5 -21t-10.5 -15t-12 -9t-9 -3q-14 0 -22 19q-11 23 -23.5 38t-29.5 15q-24 0 -41 -22.5t-29 -56.5t-20.5 -74t-15.5 -74h110q6 -5 7 -16t-7 -16
h-120q-8 -38 -14.5 -74.5t-14.5 -74.5q-24 -128 -46.5 -198t-46.5 -96l-15.5 -15.5t-20.5 -15.5t-27.5 -12t-35.5 -5q-16 0 -28 5.5t-20.5 13.5t-12.5 17t-4 15q0 23 8.5 31.5t13.5 8.5q6 0 10.5 -4.5l9.5 -9.5q14 -16 30 -28t27 -12q13 0 25 14.5t18 50.5
q19 109 35.5 202.5t30.5 186.5h-85q-5 4 -5 15q0 12 5 17h94z" />
    <glyph glyph-name="circumflex" unicode="&#x2c6;" horiz-adv-x="360" 
d="M195 553q-11 13 -15 13q-3 0 -14 -13l-90 -106q-13 0 -16 11l102 181q8 14 18 14q11 0 19 -14l102 -181q-3 -11 -16 -11z" />
    <glyph glyph-name="tilde" unicode="&#x2dc;" horiz-adv-x="360" 
d="M232 563q16 0 27 2t19.5 7t16 13.5t17.5 22.5q11 8 18 -4q-5 -18 -16.5 -40.5t-22.5 -33.5t-22.5 -14.5t-28.5 -3.5h-107q-35 0 -52.5 -14t-33.5 -43q-5 -2 -10 -1t-7 6q1 7 5 18.5t9 23.5t11.5 23.5t12.5 17.5q12 14 25 17t32 3h107z" />
    <glyph glyph-name="endash" unicode="&#x2013;" 
d="M500 230v-49h-500v49h500z" />
    <glyph glyph-name="emdash" unicode="&#x2014;" horiz-adv-x="1000" 
d="M1000 230v-49h-1000v49h1000z" />
    <glyph glyph-name="quoteleft" unicode="&#x2018;" horiz-adv-x="235" 
d="M132 473q-15 0 -29 7.5t-24.5 21t-17 30.5t-6.5 37q0 26 9.5 47.5t25.5 39t37 30t45 19.5q6 -3 8.5 -9.5t-1.5 -11.5q-28 -13 -52 -34t-24 -52q0 -14 5 -24.5t12.5 -17.5t16.5 -10.5t16 -3.5q11 -1 19 -7.5t8 -20.5q0 -6 -2 -13t-7.5 -13t-14.5 -10.5t-24 -4.5z" />
    <glyph glyph-name="quoteright" unicode="&#x2019;" horiz-adv-x="235" 
d="M103 700q15 0 29 -7.5t24.5 -21t17 -31t6.5 -36.5q0 -26 -9.5 -48t-25.5 -39t-37 -29.5t-45 -19.5q-6 3 -8.5 9.5t1.5 11.5q28 13 52 34t24 52q0 14 -5 24.5t-12.5 17.5t-16.5 10.5t-16 3.5q-11 1 -19 7.5t-8 20.5q0 6 2 13t7.5 13t14.5 10.5t24 4.5z" />
    <glyph glyph-name="quotesinglbase" unicode="&#x201a;" horiz-adv-x="215" 
d="M93 100q15 0 29.5 -7.5t25 -21t16.5 -31t6 -36.5q0 -26 -9.5 -48t-25.5 -39t-37 -29.5t-45 -19.5q-6 3 -8.5 9.5t1.5 11.5q28 13 52 34t24 52q0 14 -5 24.5t-12.5 17.5t-16.5 10.5t-16 3.5q-11 1 -19 7.5t-8 20.5q0 6 2 13t7.5 13t14.5 10.5t24 4.5z" />
    <glyph glyph-name="quotedblleft" unicode="&#x201c;" horiz-adv-x="404" 
d="M132 473q-15 0 -29 7.5t-24.5 21t-17 30.5t-6.5 37q0 26 9.5 47.5t25.5 39t37 30t45 19.5q6 -3 8.5 -9.5t-1.5 -11.5q-28 -13 -52 -34t-24 -52q0 -14 5 -24.5t12.5 -17.5t16.5 -10.5t16 -3.5q11 -1 19 -7.5t8 -20.5q0 -6 -2 -13t-7.5 -13t-14.5 -10.5t-24 -4.5zM301 473
q-15 0 -29 7.5t-24.5 21t-17 30.5t-6.5 37q0 26 9.5 47.5t25.5 39t37 30t45 19.5q6 -3 8.5 -9.5t-1.5 -11.5q-28 -13 -52 -34t-24 -52q0 -14 5 -24.5t12.5 -17.5t16.5 -10.5t16 -3.5q11 -1 19 -7.5t8 -20.5q0 -6 -2 -13t-7.5 -13t-14.5 -10.5t-24 -4.5z" />
    <glyph glyph-name="quotedblright" unicode="&#x201d;" horiz-adv-x="404" 
d="M103 700q15 0 29 -7.5t24.5 -21t17 -31t6.5 -36.5q0 -26 -9.5 -48t-25.5 -39t-37 -29.5t-45 -19.5q-6 3 -8.5 9.5t1.5 11.5q28 13 52 34t24 52q0 14 -5 24.5t-12.5 17.5t-16.5 10.5t-16 3.5q-11 1 -19 7.5t-8 20.5q0 6 2 13t7.5 13t14.5 10.5t24 4.5zM272 700
q15 0 29 -7.5t24.5 -21t17 -31t6.5 -36.5q0 -26 -9.5 -48t-25.5 -39t-37 -29.5t-45 -19.5q-6 3 -8.5 9.5t1.5 11.5q28 13 52 34t24 52q0 14 -5 24.5t-12.5 17.5t-16.5 10.5t-16 3.5q-11 1 -19 7.5t-8 20.5q0 6 2 13t7.5 13t14.5 10.5t24 4.5z" />
    <glyph glyph-name="quotedblbase" unicode="&#x201e;" horiz-adv-x="384" 
d="M93 100q15 0 29.5 -7.5t25 -21t16.5 -31t6 -36.5q0 -26 -9.5 -48t-25.5 -39t-37 -29.5t-45 -19.5q-6 3 -8.5 9.5t1.5 11.5q28 13 52 34t24 52q0 14 -5 24.5t-12.5 17.5t-16.5 10.5t-16 3.5q-11 1 -19 7.5t-8 20.5q0 6 2 13t7.5 13t14.5 10.5t24 4.5zM262 100
q15 0 29.5 -7.5t25 -21t16.5 -31t6 -36.5q0 -26 -9.5 -48t-25.5 -39t-37 -29.5t-45 -19.5q-6 3 -8.5 9.5t1.5 11.5q28 13 52 34t24 52q0 14 -5 24.5t-12.5 17.5t-16.5 10.5t-16 3.5q-11 1 -19 7.5t-8 20.5q0 6 2 13t7.5 13t14.5 10.5t24 4.5z" />
    <glyph glyph-name="dagger" unicode="&#x2020;" horiz-adv-x="480" 
d="M224 -127v137q0 43 -2.5 78.5t-7.5 65.5t-11.5 56.5t-13.5 51.5q23 28 29.5 67.5t6.5 107.5q-23 0 -42 -5t-34 -10.5t-28 -10.5t-24 -5q-24 0 -35.5 12.5t-11.5 31.5q0 18 11.5 30.5t35.5 12.5q11 0 24 -4.5t28 -10.5t34 -10.5t42 -4.5q0 42 -5 68.5t-10.5 44.5
t-10.5 29.5t-5 22.5q0 15 10 31.5t36 16.5t36 -16.5t10 -31.5q0 -11 -5 -22.5t-10.5 -29.5t-10.5 -44.5t-5 -68.5q23 0 42 4.5t34.5 10.5t28 10.5t24.5 4.5q23 0 34.5 -12.5t11.5 -30.5q0 -19 -11.5 -31.5t-34.5 -12.5q-12 0 -24.5 5t-28 10.5t-34.5 10.5t-42 5
q0 -68 6.5 -107.5t29.5 -67.5q-8 -25 -14 -51.5t-11 -56.5t-7.5 -65.5t-2.5 -78.5v-137h-32z" />
    <glyph glyph-name="daggerdbl" unicode="&#x2021;" horiz-adv-x="480" 
d="M240 676q25 0 35 -16t10 -30q0 -11 -4.5 -22.5t-10.5 -29t-10.5 -44t-4.5 -67.5q22 0 40.5 4.5t35.5 9.5q15 5 28.5 10.5t25.5 5.5q23 0 33.5 -12.5t10.5 -30.5t-10.5 -30t-33.5 -12q-12 0 -25.5 4.5t-29 10t-34 10t-41.5 4.5q0 -59 6.5 -95t29.5 -59
q-23 -21 -29.5 -58.5t-6.5 -106.5q22 0 40.5 4.5t35.5 9.5q15 5 28.5 10.5t25.5 5.5q23 0 33.5 -12.5t10.5 -30.5t-10.5 -30t-33.5 -12q-12 0 -25.5 4.5t-29 10t-34 10t-41.5 4.5q0 -41 4.5 -69t10.5 -47.5t10.5 -32.5t4.5 -24q0 -14 -10 -30.5t-35 -16.5t-35 16.5t-10 30.5
q0 11 4.5 24t10.5 32.5t10.5 47.5t4.5 69q-23 0 -41.5 -4.5t-34 -10t-29 -10t-25.5 -4.5q-23 0 -33.5 12t-10.5 30t10.5 30.5t33.5 12.5q12 0 25.5 -5.5t28.5 -10.5q17 -5 35.5 -9.5t40.5 -4.5q0 69 -6.5 106.5t-29.5 58.5q23 23 29.5 59t6.5 95q-23 0 -41.5 -4.5t-34 -10
t-29 -10t-25.5 -4.5q-23 0 -33.5 12t-10.5 30t10.5 30.5t33.5 12.5q12 0 25.5 -5.5t28.5 -10.5q17 -5 35.5 -9.5t40.5 -4.5q0 41 -4.5 67.5t-10.5 44t-10.5 29t-4.5 22.5q0 14 10 30t35 16z" />
    <glyph glyph-name="bullet" unicode="&#x2022;" horiz-adv-x="388" 
d="M194 475q29 0 54.5 -11t44 -29.5t29.5 -44t11 -54.5t-11 -54.5t-29.5 -44t-44 -29t-54.5 -10.5t-54.5 10.5t-44 29t-29.5 44t-11 54.5t11 54.5t29.5 44t44 29.5t54.5 11z" />
    <glyph glyph-name="ellipsis" unicode="&#x2026;" horiz-adv-x="1000" 
d="M167 -14q-22 0 -39 14.5t-17 40.5t16 42.5t40 16.5q26 0 41 -17.5t15 -41.5t-15 -39.5t-41 -15.5zM833 -14q-22 0 -39 14.5t-17 40.5t16 42.5t40 16.5q26 0 41 -17.5t15 -41.5t-15 -39.5t-41 -15.5zM500 -14q-22 0 -39 14.5t-17 40.5t16 42.5t40 16.5q26 0 41 -17.5
t15 -41.5t-15 -39.5t-41 -15.5z" />
    <glyph glyph-name="perthousand" unicode="&#x2030;" horiz-adv-x="1144" 
d="M209 -40q-12 0 -21 6t-9 16l404 670q8 1 17 -3.5t16 -13.5zM1030 170q0 19 -2.5 45.5t-10 51.5t-23 42.5t-40.5 17.5q-26 0 -41 -17t-23.5 -42t-11 -52t-2.5 -46t2.5 -46t11 -51.5t23.5 -41.5t41 -17q25 0 40.5 17.5t23 42t10 51.5t2.5 45zM1099 170q0 -28 -8.5 -60.5
t-26.5 -60t-45.5 -45.5t-65.5 -18t-65.5 18t-45.5 45.5t-26.5 60t-8.5 60.5q0 29 8.5 61.5t26.5 60t45.5 45.5t65.5 18t65.5 -18t45.5 -45.5t26.5 -60t8.5 -61.5zM268 455q0 19 -2.5 45.5t-10 51.5t-23 42.5t-40.5 17.5q-26 0 -41 -17t-23.5 -42t-11 -52t-2.5 -46t2.5 -46
t11 -51.5t23.5 -41.5t41 -17q25 0 40.5 17.5t23 42t10 51.5t2.5 45zM337 455q0 -28 -8.5 -60.5t-26.5 -60t-45.5 -45.5t-65.5 -18t-65.5 18t-45.5 45.5t-26.5 60t-8.5 60.5q0 29 8.5 61.5t26.5 60t45.5 45.5t65.5 18t65.5 -18t45.5 -45.5t26.5 -60t8.5 -61.5zM690 170
q0 19 -2.5 45.5t-10 51.5t-23 42.5t-40.5 17.5q-26 0 -41 -17t-23.5 -42t-11 -52t-2.5 -46t2.5 -46t11 -51.5t23.5 -41.5t41 -17q25 0 40.5 17.5t23 42t10 51.5t2.5 45zM759 170q0 -28 -8.5 -60.5t-26.5 -60t-45.5 -45.5t-65.5 -18t-65.5 18t-45.5 45.5t-26.5 60t-8.5 60.5
q0 29 8.5 61.5t26.5 60t45.5 45.5t65.5 18t65.5 -18t45.5 -45.5t26.5 -60t8.5 -61.5z" />
    <glyph glyph-name="guilsinglleft" unicode="&#x2039;" horiz-adv-x="233" 
d="M118 218q-5 -12 0 -24l70 -142q-4 -10 -17 -13q-29 38 -58 75.5t-61 75.5q-13 16 0 31q32 38 61 75t58 75q13 -2 17 -13z" />
    <glyph glyph-name="guilsinglright" unicode="&#x203a;" horiz-adv-x="233" 
d="M45 358q4 11 17 13q29 -38 58 -75t61 -75q13 -15 0 -31q-32 -38 -61 -75.5t-58 -75.5q-13 3 -17 13l70 142q5 12 0 24z" />
    <glyph glyph-name="trademark" unicode="&#x2122;" horiz-adv-x="1100" 
d="M911 544v13q0 6 -2 8q-1 0 -5.5 -7t-10 -16.5t-11.5 -21t-11 -20.5l-57 -107q-3 -5 -12.5 -23.5t-20.5 -40.5t-21 -43t-14 -32q-7 -5 -13 -1q-5 13 -12 29.5t-14.5 33.5t-15.5 33t-14 27l-59 118q-4 9 -10.5 20.5t-12.5 22.5t-11 19t-6 9q-1 -2 -2 -13t-1.5 -25t-1.5 -29
t-1 -25q-2 -28 -2.5 -64.5t-0.5 -66.5q1 -35 7 -47.5t29 -14.5l19 -2q2 -4 2 -12q0 -7 -3 -10q-14 1 -33.5 1.5t-37.5 0.5q-16 0 -35.5 -0.5t-41.5 -1.5q-4 3 -4.5 11t3.5 11l14 2q20 2 29.5 10t11.5 36q0 5 1.5 18.5t3.5 32.5t4 42t3 47q2 32 3 63t1 60q0 26 -9 35.5
t-36 13.5l-15 2q-3 5 -2.5 12.5t4.5 9.5q16 -1 32.5 -1.5t33.5 -0.5h28t37 2q1 -12 6.5 -30t13 -36.5t15.5 -35.5t14 -28l59 -112q2 -4 7 -13.5t11 -19t10.5 -17.5t6.5 -9q3 2 14 22t25 46l47 88q6 11 14.5 27.5t18 36t18 40.5t13.5 41q17 -2 30 -2h24q21 0 35 0.5t33 1.5
q5 -2 5.5 -10.5t-4.5 -11.5l-18 -2q-26 -3 -34.5 -15.5t-8.5 -38.5t0.5 -59.5t1 -69.5t1.5 -70t2 -59q2 -26 7.5 -35t22.5 -11l21 -2q4 -3 4 -11t-5 -11q-20 1 -39 1.5t-37 0.5q-24 0 -46 -0.5t-42 -1.5q-5 2 -5.5 10.5t4.5 11.5l20 2q24 2 28.5 11t3.5 37zM215 609
q0 17 -2.5 20.5t-19.5 3.5h-37q-40 0 -61.5 -11t-32.5 -46q-5 -3 -12.5 -1.5t-9.5 6.5q9 27 15.5 53.5t10.5 45.5h13q3 -6 5.5 -10t8.5 -6.5t16 -3t27 -0.5h259q24 0 35 2t19 12l13 -2q-5 -17 -8.5 -47t-1.5 -50q-2 -5 -10 -5t-11 3q-3 18 -7 30t-12 18.5t-22.5 9t-38.5 2.5
h-45q-17 0 -19.5 -3.5t-2.5 -20.5v-251q0 -41 5.5 -58.5t34.5 -19.5l26 -2q5 -4 4.5 -12t-5.5 -10q-29 1 -51 1.5t-48 0.5q-27 0 -51 -0.5t-51 -1.5q-5 2 -5.5 10t4.5 12l30 2q24 2 31 19t7 59v251z" />
    <glyph glyph-name="fraction" horiz-adv-x="100" 
d="M-183 -14q111 168 219.5 334t216.5 334q9 0 17.5 -5.5t13.5 -17.5q-112 -169 -221.5 -335.5t-218.5 -335.5q-13 0 -19.5 7.5t-7.5 18.5z" />
    <glyph glyph-name="fi" horiz-adv-x="522" 
d="M95 323q0 20 -2.5 24.5t-17.5 4.5h-35q-5 3 -5.5 8.5t2.5 10.5l43 21q6 3 10.5 7.5t4.5 12.5q0 43 7 85.5t24 82.5q8 19 23.5 42.5t39.5 44t56.5 34.5t74.5 14q25 0 48 -6.5t39.5 -17t26.5 -24.5t10 -30q0 -23 -15 -32t-26 -9t-16.5 4.5t-9.5 10.5q-22 37 -48 51.5
t-46 14.5q-59 0 -86.5 -62t-27.5 -179v-11q0 -19 3 -25t16 -6h112q16 0 35.5 1t37.5 3t33.5 5t24.5 6q7 0 10 -5q-2 -27 -3 -60.5t-1 -64.5v-167q0 -27 1 -43.5t4.5 -25.5t11 -12.5t21.5 -5.5l21 -3q5 -4 4 -13.5t-6 -11.5q-23 2 -45.5 2.5t-48.5 0.5q-52 0 -94 -3
q-5 2 -6 11.5t4 13.5l21 3q14 2 21.5 5.5t11.5 12.5t4.5 25.5t0.5 43.5v174q0 23 -2 36t-7 20t-15 8.5t-26 1.5h-125q-13 0 -16 -6.5t-3 -24.5v-209q0 -27 1 -43.5t4.5 -26t11 -13t21.5 -4.5l32 -3q5 -4 4 -13.5t-6 -11.5q-31 2 -55 2.5t-50 0.5q-27 0 -50 -0.5t-46 -2.5
q-5 2 -6 11.5t4 13.5l23 3q14 2 21.5 5.5t11.5 12.5t4.5 25.5t0.5 43.5v211z" />
    <glyph glyph-name="fl" horiz-adv-x="522" 
d="M363 575q0 53 -17 76q-8 11 -24.5 21.5t-36.5 10.5q-42 0 -65 -25t-34.5 -62t-14 -78t-2.5 -72v-31q0 -15 3 -18t16 -3h156q11 0 15 3t4 17v161zM188 352q-14 0 -16.5 -4t-2.5 -27v-209q0 -27 1 -43.5t4.5 -26t11 -13t21.5 -4.5l31 -3q5 -4 4 -13.5t-6 -11.5
q-30 2 -54 2.5t-50 0.5q-27 0 -50 -0.5t-46 -2.5q-5 2 -6 11.5t4 13.5l23 3q14 2 21.5 5.5t11.5 12.5t4.5 25.5t0.5 43.5v211q0 20 -2.5 24.5t-17.5 4.5h-35q-5 3 -5.5 8.5t2.5 10.5l43 21q6 3 10.5 7.5t4.5 12.5q0 48 5 90t22 84q8 20 23.5 43t38.5 42t54 31.5t71 12.5
q24 0 47.5 -6t45.5 -20l26 26q8 0 12 -4q-2 -33 -2.5 -75t-0.5 -74v-450q0 -27 1 -43.5t4.5 -25.5t11 -12.5t21.5 -5.5l24 -3q5 -4 4 -13.5t-6 -11.5q-25 2 -48 2.5t-49 0.5q-27 0 -50 -0.5t-46 -2.5q-5 2 -6 11.5t4 13.5l23 3q14 2 21.5 5.5t11.5 12.5t4.5 25.5t0.5 43.5
v220q0 13 -2.5 16.5t-16.5 3.5h-156z" />
    <glyph glyph-name="breve" horiz-adv-x="360" 
d="M180 505q-65 0 -99.5 33t-32.5 101q4 4 9 4q6 0 10 -4q9 -41 39 -60.5t74 -19.5t74 19.5t39 60.5q4 4 9 4q6 0 10 -4q2 -68 -32.5 -101t-99.5 -33z" />
    <glyph glyph-name="dotaccent" horiz-adv-x="360" 
d="M181 483q-20 0 -33.5 11.5t-13.5 34.5q-2 20 12 34t35 14q20 0 33 -14t13 -31q0 -22 -13 -35.5t-33 -13.5z" />
    <glyph glyph-name="ring" horiz-adv-x="360" 
d="M127 556q0 -27 15 -44.5t38 -17.5t38 17.5t15 44.5q0 26 -15 44t-38 18t-38 -18t-15 -44zM180 651q45 0 72.5 -28.5t27.5 -66.5t-27.5 -66.5t-72.5 -28.5t-72.5 28.5t-27.5 66.5t27.5 66.5t72.5 28.5z" />
    <glyph glyph-name="hungarumlaut" horiz-adv-x="360" 
d="M38 442q-14 -2 -16 12l91 169q5 10 11 16.5t11 7.5q14 2 31 -13q18 -15 18 -27q0 -13 -17 -30zM193 442q-14 -2 -16 12l91 169q5 10 11 16.5t11 7.5q14 2 31 -13q18 -15 18 -27q0 -13 -17 -30z" />
    <glyph glyph-name="ogonek" horiz-adv-x="360" 
d="M240 20q-38 -36 -60.5 -71t-22.5 -65q0 -25 14.5 -40.5t40.5 -15.5t46 15q9 -3 9 -16q-19 -26 -43 -37t-48 -11q-22 0 -38 7t-26 18t-14.5 25t-4.5 28q0 38 27.5 79t81.5 84h38z" />
    <glyph glyph-name="caron" horiz-adv-x="360" 
d="M166 558q11 -13 14 -13q4 0 15 13l90 106q13 0 16 -11l-102 -181q-8 -14 -19 -14q-10 0 -18 14l-102 181q3 11 16 11z" />
    <glyph glyph-name="Lslash" horiz-adv-x="559" 
d="M134 284l-106 -72q-10 2 -14 11.5t-2 20.5l122 83v183q0 39 -1.5 63t-7.5 37.5t-19 18.5t-37 7l-25 2q-5 3 -4 13t6 12q42 -2 71 -2.5t59 -0.5q29 0 57 0.5t66 2.5q5 -2 6 -12t-4 -13l-24 -2q-22 -2 -34.5 -7t-18.5 -18.5t-7 -37.5t-1 -63v-126l137 91q9 -4 13.5 -13
t1.5 -19l-152 -102v-179q0 -47 3.5 -70.5t17.5 -37.5q4 -4 10.5 -8t18.5 -7.5t31 -5.5t49 -2q32 0 52.5 1t34 2.5t21.5 4t14 5.5q15 9 33 35t33 64q5 4 15 1.5t10 -7.5q0 -4 -4.5 -22.5t-11 -41.5t-14 -44.5t-12.5 -31.5q-19 1 -46 1.5t-59 0.5q-32 1 -69 1h-75h-92h-31
q-14 0 -29 -0.5t-32 -1t-38 -1.5q-5 2 -6 11t4 14l30 3q22 2 34 7t18 18t7 37t1 63v134z" />
    <glyph glyph-name="dotlessi" horiz-adv-x="257" 
d="M98 287q0 15 -0.5 24t-3 15t-8 11t-15.5 12l-9 6q-3 3 -3 9q0 7 4 9q9 3 22.5 9t28.5 13t29 14t23 13q8 0 10 -6q-2 -26 -3 -59.5t-1 -64.5v-180q0 -27 1 -43.5t4.5 -25.5t11 -12.5t21.5 -5.5l21 -3q5 -4 4 -13.5t-6 -11.5q-23 2 -45.5 2.5t-48.5 0.5q-52 0 -94 -3
q-5 2 -6 11.5t4 13.5l21 3q14 2 21.5 5.5t11.5 12.5t4.5 25.5t0.5 43.5v175z" />
    <glyph glyph-name="lslash" horiz-adv-x="261" 
d="M170 312v-200q0 -27 1 -43.5t4.5 -25.5t11 -12.5t21.5 -5.5l24 -3q5 -4 4 -13.5t-6 -11.5q-25 2 -48 2.5t-49 0.5q-27 0 -50 -0.5t-46 -2.5q-5 2 -6 11.5t4 13.5l23 3q14 2 21.5 5.5t11.5 12.5t4.5 25.5t0.5 43.5v135l-83 -71q-9 2 -13.5 10.5t-2.5 18.5l99 86v273
q0 22 -0.5 35.5t-3.5 21.5t-9.5 13.5t-17.5 12.5l-10 6q-4 2 -4 10t4 10q19 6 50 17t58 25q7 0 10 -6q-1 -23 -2 -57t-1 -67v-229l97 85q9 -2 14.5 -9.5t3.5 -18.5z" />
    <glyph glyph-name="minus" 
d="M443 181h-385v49h385v-49z" />
    </font>
</defs>
</svg>
